Сообщение

На ранчо у Ри Драммонд (2-3 сезоны: 26 выпусков из 26) [2012 - 2013, ТВ-шоу, кулинария, SATRip, RUS] (Видеоурок)

Сообщение Stepan » 18 сен 2016, 23:45

На ранчо у Ри Драммонд (2-3 сезоны: 26 выпусков из 26)

Страна: Великобритания
Тематика: ТВ-шоу, кулинария
Тип раздаваемого материала: Видеоурок
Продолжительность: ~ 00:21:00
Год выпуска: 2012 - 2013

Язык: Русский
Перевод: Профессиональный (двухголосый)

Описание: Писательница, блогер и фотограф Ри Драммонд расскажет о простой в приготовлении еде. Она описывает жизнь в сельской местности и вместе с тем готовит для своей большой семьи. Используя продукты, купленные на рынке или в ближайшем магазине, она поведает незамысловатые способы их приготовления. В своих рецептах, благодаря русско-европейским корням, Ри нередко использует русские продукты. Ее страстное увлечение кулинарией уже оценили более 22 миллионов человек по всему миру

Релиз:
Tarjaa


Содержание:
сезон 2
01.Ранчо в тумане / Ranching in the Mist
02.Запаслись на славу / All Stocked Up
03.Большая игра / The Big Game
04.Маленькая школа среди прерий /Little School House on the Prairie
05.День шоколада / Chocolate Blog
06.Лагерь у ручья / Camping at the Creek
07.Воскресный обед в церкви / Potluck Sunday
08.День рождения Лэда / Ladd's Birthday
09.Обмен детьми с ночёвкой / Kidswap Sleepover
10.Девичник трёх поколений / Triple Act
11.Лучистое утро / Rise and Shine
12.Дела семейные / Family Matters
13.Ужин для ближнего / PW to Go

сезон 3
01. Сожжение конюшни / Burnin' Down the Barn
02. Работа и немножко забав / All Work and Some Play
03. Пейдж и ее подружки / Paige and Friends
04. Меню для одного / Eating for One
05. Фиеста в стиле первопроходцев /Frontier Fiesta
06. Время девушек и время чизбургеров / Girl Time and Burger Time
07. Верхом по ранчо / Horsing Around
08. Выходной Майка / Mike's Day Out
09. День рождения Алекс / Alex's Birthday
10. Лучшие друзья навеки / B.F.F.
11. Для папы /For Papa
12. Коси коса, пока роса / Make Hay While the Sun Shines
13. Любимые блюда семейства / Family Favorites
MediaInfo:
General
Complete name : The Pioneer Woman.2seazon_Tarjaa\The Pioneer Woman.2seazon.v.11.Rise and Shine_Tarjaa.avi
Format : AVI
Format/Info : Audio Video Interleave
File size : 268 MiB
Duration : 20mn 56s
Overall bit rate : 1 788 Kbps
Writing application : VirtualDubMod 1.5.10.3 | www.virtualdub-fr.org || (build 2550/release)
Writing library : VirtualDubMod build 2550/release

Video
ID : 0
Format : MPEG-4 Visual
Format profile : Advanced Simple@L5
Format settings, BVOP : 1
Format settings, QPel : No
Format settings, GMC : No warppoints
Format settings, Matrix : Default (H.263)
Codec ID : XVID
Codec ID/Hint : XviD
Duration : 20mn 56s
Bit rate : 1 650 Kbps
Width : 704 pixels
Height : 400 pixels
Display aspect ratio : 16:9
Frame rate : 25.000 fps
Color space : YUV
Chroma subsampling : 4:2:0
Bit depth : 8 bits
Scan type : Progressive
Compression mode : Lossy
Bits/(Pixel*Frame) : 0.234
Stream size : 247 MiB (92%)
Writing library : XviD 1.2.1 (UTC 2008-12-04)

Audio
ID : 1
Format : MPEG Audio
Format version : Version 1
Format profile : Layer 3
Codec ID : 55
Codec ID/Hint : MP3
Duration : 20mn 56s
Bit rate mode : Constant
Bit rate : 128 Kbps
Channel count : 2 channels
Sampling rate : 48.0 KHz
Compression mode : Lossy
Stream size : 19.2 MiB (7%)
Alignment : Aligned on interleaves
Interleave, duration : 40 ms (1.00 video frame)
Interleave, preload duration : 504 ms
Writing library : LAME3.98r
Encoding settings : -m s -V 4 -q 2 -lowpass 17 -b 128

General
Complete name : The Pioneer Woman\The Pioneer Woman.3seazon_Tarjaa\The Pioneer Woman.3seazon.v.02.All Work and Some Play_Tarjaa.avi
Format : AVI
Format/Info : Audio Video Interleave
File size : 265 MiB
Duration : 20mn 44s
Overall bit rate : 1 788 Kbps
Writing application : VirtualDubMod 1.5.10.3 | www.virtualdub-fr.org || (build 2550/release)
Writing library : VirtualDubMod build 2550/release

Video
ID : 0
Format : MPEG-4 Visual
Format profile : Advanced Simple@L5
Format settings, BVOP : 1
Format settings, QPel : No
Format settings, GMC : No warppoints
Format settings, Matrix : Default (H.263)
Codec ID : XVID
Codec ID/Hint : XviD
Duration : 20mn 44s
Bit rate : 1 650 Kbps
Width : 704 pixels
Height : 392 pixels
Display aspect ratio : 16:9
Frame rate : 25.000 fps
Color space : YUV
Chroma subsampling : 4:2:0
Bit depth : 8 bits
Scan type : Progressive
Compression mode : Lossy
Bits/(Pixel*Frame) : 0.239
Stream size : 245 MiB (92%)
Writing library : XviD 1.2.1 (UTC 2008-12-04)

Audio
ID : 1
Format : MPEG Audio
Format version : Version 1
Format profile : Layer 3
Codec ID : 55
Codec ID/Hint : MP3
Duration : 20mn 44s
Bit rate mode : Constant
Bit rate : 128 Kbps
Channel count : 2 channels
Sampling rate : 48.0 KHz
Compression mode : Lossy
Stream size : 19.0 MiB (7%)
Alignment : Aligned on interleaves
Interleave, duration : 40 ms (1.00 video frame)
Interleave, preload duration : 504 ms
Writing library : LAME3.98r
Encoding settings : -m s -V 4 -q 2 -lowpass 17 -b 128
Качество: SATRip
Формат: AVI
Видео кодек: XviD
Аудио кодек: MP3
Видео: Xvid 704x400 25.00fps ~ 1650 Кбит/с
Видео: Xvid 704x392 25.00fps ~ 1650 Кбит/с
Аудио: MPEG Audio Layer 3 48000Hz stereo 128kbps [Stream 01]

Добавлен сезон 3
перезалейте торрент

Постеры

Соцсети

 

Статистика

Автор: Stepan
Добавлен: 18 сен 2016, 23:45
Размер: 6.77 ГБ
Размер: 7 266 836 480 байт
Сидеров: 14
Личеров: 5
Скачали: 0
Здоровье: 100%
Раздающих: 100%
Статус:
Скорость скачивания: 0 байт/сек
Скорость раздачи: 0 байт/сек
Последний сидер: 7 месяцев 11 дней 20 часов 15 минут 57 секунд назад
Последний личер: 7 месяцев 11 дней 20 часов 15 минут 57 секунд назад
Приватный: Нет (DHT включён)
Кулинария Скачать торрент
Скачать торрент
[ Размер 37.45 КБ / Просмотров 2 ]

Поделиться



  • Похожие торренты
    Ответы
    Просмотры
    Последнее сообщение

Вернуться в Кулинария