Найджелиссима / Nigellissima 6 выпусков из 6 + Найджелиссима. Рождество [2012, Кулинарное шоу, SATRip, RUS] (Видеоурок)

Рецепты салатов, закусок, мясных блюд, горячих напитков и сладких блюд
Торрент Сидеров Личеров Размер
torrent_4596167.torrent
5 2 2.83 ГБ
Аватара пользователя
Stepan
Администратор
Сообщения: 52269
Зарегистрирован: 05 ноя 2011, 20:36

Найджелиссима / Nigellissima 6 выпусков из 6 + Найджелиссима. Рождество [2012, Кулинарное шоу, SATRip, RUS] (Видеоурок)

Сообщение Stepan » 18 сен 2016, 23:45

Найджелиссима / Nigellissima

Страна: Великобритания
Тематика: Кулинарное шоу
Тип раздаваемого материала: Видеоурок
Продолжительность: ~ 00:30:00
Год выпуска: 2012
Язык: Русский
Перевод: Профессиональный (одноголосый)

Описание: Найджела Люси Лоусон раскроет вам секреты итальянских блюд. Вы научитесь готовить Флорентийский бифштекс, макароны с цукини, свиную корейку с оригано у себя дома. Также среди рецептов Найджелиссимы – приготовление вкуснейшего мороженого.

Найджелиссима. Рождество
Найджела Лоусон расскажет, как приготовить Рождественский ужин в итальянском стиле. Макароны с брюссельской капустой, сыром и картофелем, индейка, канапе и выпечка с нежнейшим соусом. Изысканные блюда поразят не только вкусом, но красотой.

Релиз:
Tarjaa


MediaInfo:
General
Complete name : Nigellissima_Tarjaa\Nigellissima.v.01_Tarjaa.avi
Format : AVI
Format/Info : Audio Video Interleave
File size : 364 MiB
Duration : 29mn 18s
Overall bit rate : 1 736 Kbps
Writing application : VirtualDubMod 1.5.10.3 | www.virtualdub-fr.org || (build 2550/release)
Writing library : VirtualDubMod build 2550/release

Video
ID : 0
Format : MPEG-4 Visual
Format profile : Advanced Simple@L5
Format settings, BVOP : 1
Format settings, QPel : No
Format settings, GMC : No warppoints
Format settings, Matrix : Default (H.263)
Codec ID : XVID
Codec ID/Hint : XviD
Duration : 29mn 18s
Bit rate : 1 599 Kbps
Width : 704 pixels
Height : 400 pixels
Display aspect ratio : 16:9
Frame rate : 25.000 fps
Color space : YUV
Chroma subsampling : 4:2:0
Bit depth : 8 bits
Scan type : Progressive
Compression mode : Lossy
Bits/(Pixel*Frame) : 0.227
Stream size : 335 MiB (92%)
Writing library : XviD 1.2.1 (UTC 2008-12-04)

Audio
ID : 1
Format : MPEG Audio
Format version : Version 1
Format profile : Layer 3
Codec ID : 55
Codec ID/Hint : MP3
Duration : 29mn 18s
Bit rate mode : Constant
Bit rate : 128 Kbps
Channel count : 2 channels
Sampling rate : 48.0 KHz
Compression mode : Lossy
Stream size : 26.8 MiB (7%)
Alignment : Aligned on interleaves
Interleave, duration : 40 ms (1.00 video frame)
Interleave, preload duration : 504 ms
Writing library : LAME3.98r
Encoding settings : -m s -V 4 -q 2 -lowpass 17 -b 128
Качество: SATRip
Формат: AVI
Видео кодек: XviD
Аудио кодек: MP3
Видео: Xvid 704x400 25.00fps Bit rate: ~ 1 650 Kbps
Аудио: MPEG Audio Layer 3 48000Hz stereo 128kbps [Stream 01]

Раздачи передач с Найджелла Лоусон:
На кухне у Найджелы сезон 1 -2

Вечное лето с Найджеллой / Forever Summer With Nigella / Весь цикл 8 Выпусков

Трапезы с Найджеллой / Nigella feasts / 2006 / Кулинарное Шоу / SATRip / Весь цикл 13 Выпусков

Нигелиссима / Nigellissima

Быстрые блюда Найджелы (1-13 серии из 13) / Nigella express
Добавлен выпуск Найджелиссима. Рождество
перезалейте торрент
У вас нет необходимых прав для просмотра вложений в этом сообщении.