Сообщение

Рыба на природе [2014, Кулинария, WEBRip, RUS] (Видеоурок)

Сообщение Stepan » 18 сен 2016, 23:45

Рыба на природе

Страна: Россия
Тематика: Кулинария
Тип раздаваемого материала: Видеоурок
Продолжительность: 00:20:00
Год выпуска: 2014

Язык: Русский
Перевод: Не требуется

Описание: Предлагаем перейти на новый уровень приготовления рыбы: оставляйте тепличные кухонные условия и бегом на природу. При себе иметь мангал с решеткой, казан и фольгу!
Сергей Малаховский на речном берегу жарит и запекает... рыбу! А еще варит супы, делает котлеты, отбивные и стейки, а вдобавок к рыбе готовит соусы, овощи и крупы.

Доп. информация: © Телеканал «Еда», 2014

Качество: WEBRip
Формат: MP4
Видео кодек: AVC
Аудио кодек: AAC
Видео: AVC, 1280x720, 16:9, 2885kbps, 25fps
Аудио: AAC, 192kbps, 44,1KHz, 2ch
Полное имя : Z:\Рыба на природе\Суп из сига с водочной сметаной.mp4
Формат : MPEG-4
Профиль формата : Base Media / Version 2
Идентификатор кодека : mp42
Размер файла : 412 Мбайт
Продолжительность : 18 м.
Режим общего битрейта : Переменный
Общий поток : 3080 Кбит/сек
Дата кодирования : UTC 2014-10-30 13:12:21
Дата пометки : UTC 2014-10-30 13:12:21
gsst : 0
gstd : 1123055
gssd : BADC230E8MH1418201317290443
gshh : r8---sn-3c27ln7y.googlevideo.com

Видео
Идентификатор : 1
Формат : AVC
Формат/Информация : Advanced Video Codec
Профиль формата : High@L3.1
Параметр CABAC формата : Да
Параметр ReFrames формата : 1 кадр
Параметр GOP формата : M=1, N=60
Идентификатор кодека : avc1
Идентификатор кодека/Информация : Advanced Video Coding
Продолжительность : 18 м.
Битрейт : 2885 Кбит/сек
Максимальный битрейт : 5309 Кбит/сек
Ширина : 1280 пикселей
Высота : 720 пикселей
Соотношение сторон : 16:9
Режим частоты кадров : Постоянный
Частота кадров : 25,000 кадров/сек
Цветовое пространство : YUV
Субдискретизация насыщенности : 4:2:0
Битовая глубина : 8 бит
Тип развёртки : Прогрессивная
Бит/(Пиксели*Кадры) : 0.125
Размер потока : 386 Мбайт (94%)
Дата пометки : UTC 2014-10-30 13:12:56

Аудио
Идентификатор : 2
Формат : AAC
Формат/Информация : Advanced Audio Codec
Профиль формата : LC
Идентификатор кодека : 40
Продолжительность : 18 м.
Вид битрейта : Переменный
Битрейт : 192 Кбит/сек
Максимальный битрейт : 201 Кбит/сек
Каналы : 2 канала
Расположение каналов : Front: L R
Частота : 44,1 КГц
Метод сжатия : С потерями
Размер потока : 25,7 Мбайт (6%)
Заголовок : IsoMedia File Produced by Google, 5-11-2011
Дата кодирования : UTC 2014-10-30 13:12:44
Дата пометки : UTC 2014-10-30 13:12:56

Постеры

Соцсети

 

Статистика

Автор: Stepan
Добавлен: 18 сен 2016, 23:45
Размер: 6.14 ГБ
Размер: 6 597 520 325 байт
Сидеров: 2
Личеров: 1
Скачали: 0
Здоровье: 100%
Раздающих: 100%
Статус:
Скорость скачивания: 0 байт/сек
Скорость раздачи: 0 байт/сек
Последний сидер: 7 месяцев 7 дней 23 часа 7 минут 56 секунд назад
Последний личер: 7 месяцев 7 дней 23 часа 7 минут 56 секунд назад
Приватный: Нет (DHT включён)
Кулинария Скачать торрент
Скачать торрент
[ Размер 17.66 КБ / Просмотров 0 ]

Поделиться



Вернуться в Кулинария