Сообщение

Джейми Оливер: Хрустящее Рождество / Jamie's cracking christmas [2014, Кулинарное шоу, HDTV, RUS/ENG]

Сообщение Stepan » 18 сен 2016, 23:46

Джейми Оливер: Хрустящее Рождество / Jamie's cracking christmas

Страна: Соединённое Королевство Великобритании и Северной Ирландии
Тематика: Кулинарное шоу
Тип раздаваемого материала: Кулинарное шоу
Продолжительность: 00:46:43
Год выпуска: 2014

Язык: Русский
Перевод: Профессиональный (многоголосый, закадровый)

Язык субтитров: нет
Описание: Рождество - это не только большой праздник, это ещё и волшебные дни до и после него: большие изысканные обеды, сезонные торжества и уютные сборища с друзьями и семьёй. Это время, когда нужно баловать себя особенной едой...

Качество: HDTV
Формат: TS
Видео кодек: AVC
Аудио кодек: MP2
Видео: AVC, 1920x1080 (16:9), 25.000 fps, 7 252 Kbps (0.140 bit/pixel)
Аудио: MP2, 48.0 KHz, 2 ch, 160 Kbps, CBR (Russian)
Аудио 2: MP2, 48.0 KHz, 2 ch, 160 Kbps, CBR (English)
Код:
Код: Выделить всё
General
ID                          : 1 (0x1)
Complete name               : E:\Jamie\Jamie's.Cracking.Christmas.HDTV.ts
Format                      : MPEG-TS
File size                   : 2.60 GiB
Duration                    : 46mn 43s
Overall bit rate mode       : Variable
Overall bit rate            : 7 969 Kbps

Video
ID                          : 141 (0x8D)
Menu ID                     : 13002 (0x32CA)
Format                      : AVC
Format/Info                 : Advanced Video Codec
Format profile              : Main@L4
Format settings, CABAC      : Yes
Format settings, ReFrames   : 4 frames
Codec ID                    : 27
Duration                    : 46mn 43s
Bit rate                    : 7 252 Kbps
Width                       : 1 920 pixels
Height                      : 1 080 pixels
Display aspect ratio        : 16:9
Frame rate                  : 25.000 fps
Standard                    : Component
Color space                 : YUV
Chroma subsampling          : 4:2:0
Bit depth                   : 8 bits
Scan type                   : MBAFF
Scan type, store method     : Interleaved fields
Scan order                  : Top Field First
Bits/(Pixel*Frame)          : 0.140
Stream size                 : 2.37 GiB (91%)
Color range                 : Limited
Color primaries             : BT.709
Transfer characteristics    : BT.709
Matrix coefficients         : BT.709

Audio #1
ID                          : 144 (0x90)
Menu ID                     : 13002 (0x32CA)
Format                      : MPEG Audio
Format version              : Version 1
Format profile              : Layer 2
Mode                        : Joint stereo
Codec ID                    : 3
Duration                    : 46mn 43s
Bit rate mode               : Constant
Bit rate                    : 160 Kbps
Channel(s)                  : 2 channels
Sampling rate               : 48.0 KHz
Compression mode            : Lossy
Delay relative to video     : -80ms
Stream size                 : 53.5 MiB (2%)
Language                    : Russian

Audio #2
ID                          : 145 (0x91)
Menu ID                     : 13002 (0x32CA)
Format                      : MPEG Audio
Format version              : Version 1
Format profile              : Layer 2
Mode                        : Joint stereo
Codec ID                    : 3
Duration                    : 46mn 43s
Bit rate mode               : Constant
Bit rate                    : 160 Kbps
Channel(s)                  : 2 channels
Sampling rate               : 48.0 KHz
Compression mode            : Lossy
Delay relative to video     : -80ms
Stream size                 : 53.5 MiB (2%)
Language                    : English





Постеры

Соцсети

 

Статистика

Автор: Stepan
Добавлен: 18 сен 2016, 23:46
Размер: 2.6 ГБ
Размер: 2 792 599 752 байт
Сидеров: 0
Личеров: 0
Скачали: 0
Здоровье: 0%
Статус:
Скорость скачивания: 0 байт/сек
Скорость раздачи: 0 байт/сек
Последний сидер: Нет
Последний личер: Нет
Приватный: Нет (DHT включён)
Кулинария Скачать торрент
Скачать торрент
[ Размер 13.46 КБ / Просмотров 0 ]

Поделиться



Вернуться в Кулинария