Джейми Оливер: Готовим вкусно и недорого / Save with Jamie's Сезон 1 (1-6 из 6), Сезон 2 (1-6 из 6) [2013, Кулинарное шоу, HDTV, RUS/ENG]

Рецепты салатов, закусок, мясных блюд, горячих напитков и сладких блюд
Торрент Сидеров Личеров Размер
torrent_4635820.torrent
0 0 30.72 ГБ
Аватара пользователя
Stepan
Администратор
Сообщения: 51624
Зарегистрирован: 05 ноя 2011, 20:36

Джейми Оливер: Готовим вкусно и недорого / Save with Jamie's Сезон 1 (1-6 из 6), Сезон 2 (1-6 из 6) [2013, Кулинарное шоу, HDTV, RUS/ENG]

Сообщение Stepan » 18 сен 2016, 23:46

Джейми Оливер: Готовим вкусно и недорого / Save with Jamie's

Страна: Соединённое Королевство Великобритании и Северной Ирландии
Тематика: Кулинарное шоу
Тип раздаваемого материала: Видеоурок
Продолжительность: 00:46:18
Год выпуска: 2013

Язык: Русский + Английский
Перевод: Профессиональный (многоголосый, закадровый)

Язык субтитров: нет
Описание: Джейми Оливер продолжает свою просветительскую деятельность, цель которой - приучить людей питаться вкусно и полезно, при этом не тратя на еду много денег. Харизматичный повар научит зрителей делать правильный выбор в магазине, а также рационально распоряжаться своим временем и бюджетом.

Доп. информация:



Чистая запись с канала FoxLife HD без перекодирования.
Код:

Код: Выделить всё

General
ID                          : 1 (0x1)
Complete name               : E:\Jamie\Save with Jamie HD\Save.With.Jamie.S01.E01.HDTV.ts
Format                      : MPEG-TS
File size                   : 2.61 GiB
Duration                    : 47mn 2s
Overall bit rate mode       : Variable
Overall bit rate            : 7 943 Kbps
Maximum Overall bit rate    : 35.5 Mbps

Video
ID                          : 4113 (0x1011)
Menu ID                     : 1 (0x1)
Format                      : AVC
Format/Info                 : Advanced Video Codec
Format profile              : Main@L4.0
Format settings, CABAC      : Yes
Format settings, ReFrames   : 4 frames
Format settings, GOP        : M=1, N=2
Codec ID                    : 27
Duration                    : 47mn 1s
Bit rate                    : 7 227 Kbps
Width                       : 1 920 pixels
Height                      : 1 080 pixels
Display aspect ratio        : 16:9
Frame rate                  : 25.000 fps
Color space                 : YUV
Chroma subsampling          : 4:2:0
Bit depth                   : 8 bits
Scan type                   : MBAFF
Bits/(Pixel*Frame)          : 0.139
Stream size                 : 2.37 GiB (91%)
Color primaries             : BT.709
Transfer characteristics    : BT.709
Matrix coefficients         : BT.709
Color range                 : Limited

Audio #1
ID                          : 4352 (0x1100)
Menu ID                     : 1 (0x1)
Format                      : MPEG Audio
Format version              : Version 1
Format profile              : Layer 2
Codec ID                    : 4
Duration                    : 47mn 2s
Bit rate mode               : Constant
Bit rate                    : 160 Kbps
Channel(s)                  : 2 channels
Sampling rate               : 48.0 KHz
Compression mode            : Lossy
Stream size                 : 53.8 MiB (2%)
Language                    : Russian

Audio #2
ID                          : 4353 (0x1101)
Menu ID                     : 1 (0x1)
Format                      : MPEG Audio
Format version              : Version 1
Format profile              : Layer 2
Codec ID                    : 4
Duration                    : 47mn 2s
Bit rate mode               : Constant
Bit rate                    : 160 Kbps
Channel(s)                  : 2 channels
Sampling rate               : 48.0 KHz
Compression mode            : Lossy
Stream size                 : 53.8 MiB (2%)
Language                    : English
Качество: HDTV
Формат: TS
Видео кодек: H.264
Аудио кодек: MP2
Видео: MPEG4 Video (H264) 1920x1080 25fps 6839 Kbps
Аудио: MPEG Audio 48000Hz stereo 192kbps [RU]




У вас нет необходимых прав для просмотра вложений в этом сообщении.