Сообщение

Лучший повар америки / MastеrChef US / Сезон: 3 / Выпуск: 1-20 (20) [2012 г.,Реалити-шоу, кулинария, IPTVRip] RUS

Сообщение Stepan » 18 сен 2016, 23:46

Лучший повар америки 3 сезон / MastеrChef US Season 3

Страна: США
Тематика: кулинария
Тип раздаваемого материала: реалити-шоу
Продолжительность: ~ 00:40:00
Год выпуска: 2012
Язык: Русский
Перевод: Профессиональный (двухголосый)

Описание: Повар-профессионал Гордон Рамзи ищет лучших кулинаров-любителей Америки. Посмотрите, как участники конкурса демонстрируют свою оригинальность, творческие подходы и страсть к приготовлению пищи. Все они полны надежд выиграть гран-при, который изменит их жизнь, и получить почетное звание следующего "Лучшего шеф-повара Америки".

Качество: IPTVRip
Формат: AVI
Видео кодек: XviD
Аудио кодек: MP3

2 серия:
Video: Xvid 704x432 ~1 640 Kbps 25fps 0.216 bit/pixel
Audio1: MPEG Audio Layer 3 44100Hz stereo 256kbps
остальные серии:
Video: Xvid 704x400 ~1 730 Kbps 25fps ~0.247 bit/pixel
Audio1: MPEG Audio Layer 3 48000Hz stereo 128kbps
C:\Documents and Settings\Admin\Мои документы\Downloads\MC.S1-4\MC_US.S03\MC_US.S03E05.avi
General
Complete name : C:\Documents and Settings\Admin\Мои документы\Downloads\MC.S1-4\MC_US.S03\MC_US.S03E05.avi
Format : AVI
Format/Info : Audio Video Interleave
File size : 530 MiB
Duration : 39mn 23s
Overall bit rate : 1 881 Kbps
Writing application : VirtualDubMod 1.5.4.1 (build 2178/release)
Writing library : VirtualDubMod build 2178/release
Video #0
ID : 0
Format : MPEG-4 Visual
Format profile : Advanced Simple@L5
Format settings, BVOP : 1
Format settings, QPel : No
Format settings, GMC : No warppoints
Format settings, Matrix : Custom
Codec ID : XVID
Codec ID/Hint : XviD
Duration : 39mn 23s
Bit rate : 1 746 Kbps
Width : 704 pixels
Height : 400 pixels
Display aspect ratio : 16:9
Frame rate : 25.000 fps
Color space : YUV
Chroma subsampling : 4:2:0
Bit depth : 8 bits
Scan type : Progressive
Compression mode : Lossy
Bits/(Pixel*Frame) : 0.248
Stream size : 492 MiB (93%)
Writing library : XviD 64
Audio #1
ID : 1
Format : MPEG Audio
Format version : Version 1
Format profile : Layer 2
Mode : Joint stereo
Codec ID : 50
Duration : 39mn 23s
Bit rate mode : Constant
Bit rate : 128 Kbps
Channel(s) : 2 channels
Sampling rate : 48.0 KHz
Compression mode : Lossy
Stream size : 36.1 MiB (7%)
Alignment : Aligned on interleaves
Interleave, duration : 80 ms (2.00 video frames)
Interleave, preload duration : 504 ms

Постеры

Соцсети

 

Статистика

Автор: Stepan
Добавлен: 18 сен 2016, 23:46
Размер: 10.37 ГБ
Размер: 11 138 930 006 байт
Сидеров: 0
Личеров: 0
Скачали: 0
Здоровье: 0%
Статус:
Скорость скачивания: 0 байт/сек
Скорость раздачи: 0 байт/сек
Последний сидер: Нет
Последний личер: Нет
Приватный: Нет (DHT включён)
Кулинария Скачать торрент
Скачать торрент
[ Размер 53.22 КБ / Просмотров 0 ]

Поделиться



Вернуться в Кулинария