Лучший повар америки / MastеrChef US / Сезон: 4 / Выпуск: 1-25 (25) [2013 г.,Реалити-шоу, кулинария, HDTVRip] RUS+ENG

Рецепты салатов, закусок, мясных блюд, горячих напитков и сладких блюд
Торрент Сидеров Личеров Размер
torrent_4798030.torrent
0 0 12 ГБ
Аватара пользователя
Stepan
Администратор
Сообщения: 51624
Зарегистрирован: 05 ноя 2011, 20:36

Лучший повар америки / MastеrChef US / Сезон: 4 / Выпуск: 1-25 (25) [2013 г.,Реалити-шоу, кулинария, HDTVRip] RUS+ENG

Сообщение Stepan » 18 сен 2016, 23:46

Лучший повар америки 4 сезон / MastеrChef US Season 4

Страна: США
Тематика: кулинария
Тип раздаваемого материала: реалити-шоу
Продолжительность: ~ 00:40:00
Год выпуска: 2013
Язык: Русский
Перевод: Профессиональный (двухголосый)

Описание: Повар-профессионал Гордон Рамзи ищет лучших кулинаров-любителей Америки. Посмотрите, как участники конкурса демонстрируют свою оригинальность, творческие подходы и страсть к приготовлению пищи. Все они полны надежд выиграть гран-при, который изменит их жизнь, и получить почетное звание следующего "Лучшего шеф-повара Америки".

Качество: HDTVRip
Формат: AVI
Видео кодек: XviD
Аудио кодек: MP3

Video: Xvid 720x400 ~1 380 Kbps 23.976fps 0.20 bit/pixel
Audio1: MPEG Audio Layer 3 48000Hz stereo 128kbps [Rus]
Audio2: MPEG Audio Layer 3 48000Hz stereo 128kbps [Eng]
C:\Documents and Settings\Admin\Мои документы\Downloads\MC.S1-4\MC_US.S04\MC_US.S04E21.avi
General
Complete name : C:\Documents and Settings\Admin\Мои документы\Downloads\MC.S1-4\MC_US.S04\MC_US.S04E21.avi
Format : AVI
Format/Info : Audio Video Interleave
File size : 487 MiB
Duration : 41mn 15s
Overall bit rate : 1 650 Kbps
Writing application : VirtualDubMod 1.5.10.3 (build 2550/release)
Writing library : VirtualDubMod build 2550/release
Video #0
ID : 0
Format : MPEG-4 Visual
Format profile : Advanced Simple@L5
Format settings, BVOP : 1
Format settings, QPel : No
Format settings, GMC : No warppoints
Format settings, Matrix : Default (MPEG)
Codec ID : XVID
Codec ID/Hint : XviD
Duration : 41mn 15s
Bit rate : 1 380 Kbps
Width : 720 pixels
Height : 400 pixels
Display aspect ratio : 16:9
Frame rate : 23.976 fps
Color space : YUV
Chroma subsampling : 4:2:0
Bit depth : 8 bits
Scan type : Progressive
Compression mode : Lossy
Bits/(Pixel*Frame) : 0.200
Stream size : 407 MiB (84%)
Writing library : XviD 1.2.0.dev47 (UTC 2006-11-01)
Audio #1
ID : 1
Format : MPEG Audio
Format version : Version 1
Format profile : Layer 3
Mode : Joint stereo
Mode extension : MS Stereo
Codec ID : 55
Codec ID/Hint : MP3
Duration : 41mn 15s
Bit rate mode : Constant
Bit rate : 128 Kbps
Channel(s) : 2 channels
Sampling rate : 48.0 KHz
Compression mode : Lossy
Stream size : 37.8 MiB (8%)
Alignment : Aligned on interleaves
Interleave, duration : 42 ms (1.00 video frame)
Interleave, preload duration : 504 ms
Title : Rus
Audio #2
ID : 2
Format : MPEG Audio
Format version : Version 1
Format profile : Layer 3
Mode : Joint stereo
Mode extension : MS Stereo
Codec ID : 55
Codec ID/Hint : MP3
Duration : 41mn 15s
Bit rate mode : Constant
Bit rate : 128 Kbps
Channel(s) : 2 channels
Sampling rate : 48.0 KHz
Compression mode : Lossy
Stream size : 37.8 MiB (8%)
Alignment : Aligned on interleaves
Interleave, duration : 42 ms (1.00 video frame)
Interleave, preload duration : 504 ms
Title : Eng
У вас нет необходимых прав для просмотра вложений в этом сообщении.