Лучший повар америки / MastеrChef US / Сезон: 5 / Выпуск: 1-19 (19) [2014 г.,Реалити-шоу, кулинария, HDTVRip] RUS (TLC)

Рецепты салатов, закусок, мясных блюд, горячих напитков и сладких блюд
Торрент Сидеров Личеров Размер
torrent_4945853.torrent
0 0 9 ГБ
Аватара пользователя
Stepan
Администратор
Сообщения: 51624
Зарегистрирован: 05 ноя 2011, 20:36

Лучший повар америки / MastеrChef US / Сезон: 5 / Выпуск: 1-19 (19) [2014 г.,Реалити-шоу, кулинария, HDTVRip] RUS (TLC)

Сообщение Stepan » 18 сен 2016, 23:46

Лучший повар америки 5 сезон / MastеrChef US Season 5

Страна: США
Тематика: кулинария
Тип раздаваемого материала: реалити-шоу
Продолжительность: ~ 00:40:00
Год выпуска: 2014
Язык: Русский
Перевод: Профессиональный (двухголосый) [TLC]

Описание: Множество талантливых и не очень кулинаров борются за звание «Лучший повар Америки» — их мастерство оценивают судьи во главе с Гордоном Рамзи. Ставки высоки — 250 тыс. долларов, возможность издать свою книгу рецептов и статус Лучший повар Америки.

Качество: HDTVRip
Формат: AVI
Видео кодек: XviD
Аудио кодек: AC-3

Видео: Xvid 720x400 ~1 529 Kbps 25fps 0.212 bit/pixel
Аудио: AC-3 48000Hz 2ch 192kbps
Format : AVI
Format/Info : Audio Video Interleave
File size : 488 MiB
Duration : 39mn 23s
Overall bit rate : 1 731 Kbps
Writing application : VirtualDubMod 1.5.10.3 | www.virtualdub-fr.org || (build 2550/release)
Writing library : VirtualDubMod build 2550/release
Video #0
ID : 0
Format : MPEG-4 Visual
Format profile : Advanced Simple@L5
Format settings, BVOP : 1
Format settings, QPel : No
Format settings, GMC : No warppoints
Format settings, Matrix : Default (H.263)
Codec ID : XVID
Codec ID/Hint : XviD
Duration : 39mn 23s
Bit rate : 1 529 Kbps
Width : 720 pixels
Height : 400 pixels
Display aspect ratio : 16:9
Frame rate : 25.000 fps
Color space : YUV
Chroma subsampling : 4:2:0
Bit depth : 8 bits
Scan type : Progressive
Compression mode : Lossy
Bits/(Pixel*Frame) : 0.212
Stream size : 431 MiB (88%)
Writing library : XviD 1.2.1 (UTC 2008-12-04)
Audio #1
ID : 1
Format : AC-3
Format/Info : Audio Coding 3
Mode extension : CM (complete main)
Codec ID : 2000
Duration : 39mn 23s
Bit rate mode : Constant
Bit rate : 192 Kbps
Channel(s) : 2 channels
Channel positions : Front: L R
Sampling rate : 48.0 KHz
Bit depth : 16 bits
Compression mode : Lossy
Stream size : 54.1 MiB (11%)
Alignment : Split accross interleaves
Interleave, duration : 40 ms (1.00 video frame)
Interleave, preload duration : 500 ms
У вас нет необходимых прав для просмотра вложений в этом сообщении.