Все будет вкусно! / Все буде смачно!, Выпуск 1-50 [2013-2014, Кулинария, SATRip, RUS] (Видеоурок)

Рецепты салатов, закусок, мясных блюд, горячих напитков и сладких блюд
Торрент Сидеров Личеров Размер
torrent_4613154.torrent
0 0 36.85 ГБ
Аватара пользователя
Stepan
Администратор
Сообщения: 52386
Зарегистрирован: 05 ноя 2011, 20:36

Все будет вкусно! / Все буде смачно!, Выпуск 1-50 [2013-2014, Кулинария, SATRip, RUS] (Видеоурок)

Сообщение Stepan » 18 сен 2016, 23:50



Все будет вкусно! / Все буде смачно!
Страна: Украина, "ММЦ" СТБ
Тематика: Кулинария
Тип раздаваемого материала: Видеоурок
Продолжительность: ~ 00:48:00
Год выпуска: 2013-2014

Язык: Русский
Перевод: Не требуется
Ведущая: Надежда Матвеева

Описание: Шоу является собственной разработкой телеканала, благодаря которой каждый сможет научиться готовить или усовершенствует свои кулинарные навыки. Телепроект будет выходить каждую субботу и воскресенье в 09:00. Производством проекта занимается творческое объединение Дмитрия Кицая на СТБ (проект «Все буде добре»). «В нашем кулинарном проекте очень важно правильно показать зрителю волшебство кулинарного процесса во всех его деталях и красках, - поделился Дмитрий Кицай, - Поэтому впервые на телеканале СТБ в проекте «Все буде смачно!» мы использовали такие технологии, как slow motion и макросъемка, что бы максимально точно объяснить и показать процесс приготовления кулинарных. Экспертами проекта стали лучшие кулинары Украины – Эктор Хименес-Браво, Сергей Калинин, Татьяна Литвинова и Алла Ковальчук. Они вместе с ведущей Надеждой Матвеевой каждый выпуск программы будут обучать приглашенных звезд всем секретам и тонкостям кулинарного мастерства.

Доп. информация:
Выпуск 1: Сырники
Выпуск 2: Голубцы
Выпуск 3: Печень по-строгановски
Выпуск 4: Омлет
Выпуск 5: Творожные кексы
Выпуск 6: Оладьи
Выпуск 7: Плов
Выпуск 8: Бисквит
Выпуск 9: Пельмени
Выпуск 10: Пирожки
Выпуск 11: Котлета по-киевски
Выпуск 12: Караси
Выпуск 13: Деруны
Выпуск 14: Кролик
Выпуск 15: Картошка
Выпуск 16: Котлеты
Выпуск 17: Пицца
Выпуск 18: Стейк
Выпуск 19: Буженина
Выпуск 20: Наполеон
Выпуск 21: Капкейки
Выпуск 22: Вареники
Выпуск 23: Суфле
Выпуск 24: Творожная запеканка
Выпуск 25: Лазанья
Выпуск 26: Безе
Выпуск 27: Борщ
Выпуск 28: Песочное тесто.
Выпуск 29: Чебуреки
Выпуск 30: Как приготовить слоеное тесто
Выпуск 31: Рецепт роскошного «Пражского торта»
Выпуск 32: Делаем зразы быстро, легко и с удовольствием
Выпуск 33: Как приготовить сочную запеченную утку
Выпуск 34: Золотистые блины от Аллы Ковальчук
Выпуск 35: Идеальная, ароматная курица в духовке
Выпуск 36: Эклеры от Винченцо Барба
Выпуск 37: Настоящий грузинский харчо
Выпуск 38: Чизкейк от Елизаветы Глинской
Выпуск 39: Отбивные из трех видов мяса
Выпуск 40: Настоящая паста «Карбонара»
Выпуск 41: Королевские ватрушки
Выпуск 42: Сметанник для Анны Козырь
Выпуск 43: Три блюда из карпа
Выпуск 44: Классический итальянский Тирамису
Выпуск 45: Домашний куриный бульон
Выпуск 46: Домашняя колбаса
Выпуск 47: Тефтели
Выпуск 48: Пасхальные куличи
Выпуск 49: Свиные ребрышки
Выпуск 50: Суши
Выпуск 51:
Качество: SATRip
Формат: AVI
Видео кодек: XviD
Аудио кодек: MP3
Видео: XviD, 720x400, 25.00fps, ~1850 Кбит/сек
Аудио: 48 kHz, MPEG Layer 3, 2 ch, 192.00 kbps
Общее
Полное имя : R:\ТВ-Шоу\«Все будет вкусно!» «2013» «ММЦ СТБ»\Vse budet vkusno!.(013.vupysk).(2013.12.08).2013.XviD.SATRip.simkanetua.avi
Формат : AVI
Формат/Информация : Audio Video Interleave
Размер файла : 746 Мбайт
Продолжительность : 49 м.
Общий поток : 2097 Кбит/сек
Программа кодирования : VirtualDubMod 1.5.10.3 | www.virtualdub-fr.org || (build 2550/release)
Библиотека кодирования : VirtualDubMod build 2550/release

Видео
Идентификатор : 0
Формат : MPEG-4 Visual
Профиль формата : Advanced Simple@L5
Параметр BVOP формата : 1
Параметр QPel формата : Нет
Параметр GMC формата : Без точки перехода
Параметр матрицы формата : Default (H.263)
Идентификатор кодека : XVID
Идентификатор кодека/Подсказка : XviD
Продолжительность : 49 м.
Битрейт : 1895 Кбит/сек
Ширина : 720 пикселей
Высота : 400 пикселей
Соотношение сторон : 16:9
Частота кадров : 25,000 кадров/сек
Цветовое пространство : YUV
Субдискретизация насыщенности : 4:2:0
Битовая глубина : 8 бит
Тип развёртки : Прогрессивная
Метод сжатия : С потерями
Бит/(Пиксели*Кадры) : 0.263
Размер потока : 674 Мбайт (90%)
Библиотека кодирования : XviD 1.2.1 (UTC 2008-12-04)

Аудио
Идентификатор : 1
Формат : MPEG Audio
Версия формата : Version 1
Профиль формата : Layer 3
Режим : Joint stereo
Расширение режима : MS Stereo
Идентификатор кодека : 55
Идентификатор кодека/Подсказка : MP3
Продолжительность : 49 м.
Вид битрейта : Постоянный
Битрейт : 192 Кбит/сек
Каналы : 2 канала
Частота : 48,0 КГц
Метод сжатия : С потерями
Размер потока : 68,3 Мбайт (9%)
Выравнивание : Соединение по промежуткам
Продолжительность промежутка : 40 мс. (1,00 видеокадр)
Время предзагрузки промежутка : 504 мс.
Библиотека кодирования : LAME3.99r
Настройки программы : -m j -V 4 -q 2 -lowpass 18.6 -b 192
-------------
При каждом добавлении создаётся новый торрент. Чтобы начать докачку нового выпуска, пользователям необходимо сделать следующее:
● остановить скачивание;
● удалить старый торрент у себя из клиента (старые выпуски удалять не надо);
● скачать новый торрент и запустить его у себя в клиенте вместо старого, при этом указать клиенту путь в старую папку куда и должно происходить скачивание новых выпусков;
● ваш клиент при запуске должен произвести хеширование (проверку) старой папки (если не производит сам - помогите ему сделать это), и будет докачивать только те выпуски, которых у вас ещё нет. Старые выпуски при этом не удаляются, а продолжают раздаваться!
● Eсли вы уже удалили старые выпуски, то предотвратить повторную закачку старых выпусков можно, отжав галочку в соответсвующих местах при запуске нового торрента.
Добавлен 44-й - 50-й Выпуск, замена 39-го выпуска
У вас нет необходимых прав для просмотра вложений в этом сообщении.