Сообщение

Просто, по-итальянски, Классическая итальянская кухня от Микелы / Simply Italian, Michela's Classic Italian [2012-2013, Обучающий, тв-передача, кулинария, SATRip] (Видеоурок)

Сообщение Stepan » 18 сен 2016, 23:50

Просто, по-итальянски, Классическая итальянская кухня от Микелы / Simply Italian, Michela's Classic Italian

Страна: Великобритания
Тематика: ТВ-шоу, кулинария
Тип раздаваемого материала: Видеоурок
Продолжительность: ~ 00:26:30
Год выпуска: 2012 - 2013
Выпущено: Великобритания
Ведущий: Микела Кьепа
Язык: Русский
Перевод: Профессиональный (одноголосый)

Описание: Итальянскую кухню любят во всем мире, ведь дивные вкусы и простые кулинарные приемы делают эту пищу идеальной. Вкуснейшие пасты, легкие в приготовлении пиццы, долго томившиеся в духовке запеканки и мгновенно взбитые десерты – все это итальянская кухня, с подлинными рецептами которой вас познакомит шеф-повар Микела Кьяппа.
Релиз:
Tarjaa

Содержание:
Просто, по-итальянски 2012

Классическая итальянская кухня от Микелы2013
01. Мясные шарики с полентой и соусом из запеченых сладких перцев; ризотто с грибами; домашнее мороженое.
02. Баклажаны с сыром моцарелла, запеченные в томатном соусе; картофельные ньокки с соусом песто; классическая брускетта с помидорами, с лаймом и сельдереем, с горошком и моцареллой; тирамису.
03. Лингвини с морепродуктами; классическая лазанья; пицца: "Маргарита" , "Квантро" .
MediaInfo:
General
Complete name : Simply Italian\Simply Italian.V.02_2012.Xvid.SATRip_Tarjaa.avi
Format : AVI
Format/Info : Audio Video Interleave
File size : 296 MiB
Duration : 23mn 6s
Overall bit rate : 1 788 Kbps
Writing application : VirtualDubMod 1.5.10.3 | www.virtualdub-fr.org || (build 2550/release)
Writing library : VirtualDubMod build 2550/release

Video
ID : 0
Format : MPEG-4 Visual
Format profile : Advanced Simple@L5
Format settings, BVOP : 1
Format settings, QPel : No
Format settings, GMC : No warppoints
Format settings, Matrix : Default (H.263)
Codec ID : XVID
Codec ID/Hint : XviD
Duration : 23mn 6s
Bit rate : 1 650 Kbps
Width : 704 pixels
Height : 400 pixels
Display aspect ratio : 16:9
Frame rate : 25.000 fps
Color space : YUV
Chroma subsampling : 4:2:0
Bit depth : 8 bits
Scan type : Progressive
Compression mode : Lossy
Bits/(Pixel*Frame) : 0.234
Stream size : 273 MiB (92%)
Writing library : XviD 1.2.1 (UTC 2008-12-04)

Audio
ID : 1
Format : MPEG Audio
Format version : Version 1
Format profile : Layer 3
Codec ID : 55
Codec ID/Hint : MP3
Duration : 23mn 6s
Bit rate mode : Constant
Bit rate : 128 Kbps
Channel(s) : 2 channels
Sampling rate : 48.0 KHz
Compression mode : Lossy
Stream size : 21.2 MiB (7%)
Alignment : Aligned on interleaves
Interleave, duration : 40 ms (1.00 video frame)
Interleave, preload duration : 504 ms
Writing library : LAME3.98r
Encoding settings : -m s -V 4 -q 2 -lowpass 17 -b 128
Просто, по-итальянски
Качество: SATRip
Формат: AVI
Видео кодек: XviD
Аудио кодек: MP3
Видео: Xvid 704x400 25.00fps Bit rate: ~ 1 700 Kbps
Аудио: MPEG Audio Layer 3 48000Hz stereo 128kbps [Stream 01]

Классическая итальянская кухня от Микелы
Качество: SATRip
Формат: AVI
Видео кодек: XviD
Аудио кодек: MP3
Видео: Xvid 720x400 25.00fps Bit rate: ~ 1 600 Kbps
Аудио: MPEG Audio Layer 3 48000Hz stereo 128kbps [Stream 01]

Альтернативная раздача:
Спасибо огромное за постер irinadyach
Добавлен "Классическая итальянская кухня от Микелы"
перезалейте торрент

Постеры

Соцсети

 

Статистика

Автор: Stepan
Добавлен: 18 сен 2016, 23:50
Размер: 2.13 ГБ
Размер: 2 286 911 488 байт
Сидеров: 0
Личеров: 0
Скачали: 0
Здоровье: 0%
Статус:
Скорость скачивания: 0 байт/сек
Скорость раздачи: 0 байт/сек
Последний сидер: Нет
Последний личер: Нет
Приватный: Нет (DHT включён)
Кулинария Скачать торрент
Скачать торрент
[ Размер 11.8 КБ / Просмотров 0 ]

Поделиться



Вернуться в Кулинария