Сообщение

Телекафе: Бисквит (1-6 выпуск) [2011, ТВ-шоу, кулинария, SATRip, RUS] (Видеоурок)

Сообщение Stepan » 18 сен 2016, 23:51

Телекафе: Бисквит (1-6 выпуск)

Страна: Россия
Тематика: ТВ-шоу, кулинария
Тип раздаваемого материала: Видеоурок
Продолжительность: 6 x ~ 00:50:00
Год выпуска: 2011

Язык: Русский
Перевод: Не требуется

Описание: Кондитерская кулинария как высокое искусство в программе «Бисквит». Все секреты сладкой жизни — из первых рук! Тончайшие нюансы приготовления изысканных, изощренных и прославленных во всем мире десертов.

Доп. информация:
Format : AVI
Format/Info : Audio Video Interleave
File size : 729 MiB
Duration : 1h 2mn
Overall bit rate : 1 638 Kbps
Writing application : VirtualDubMod 1.5.10.3 | www.virtualdub-fr.org || (build 2550/release)
Writing library : VirtualDubMod build 2550/release

Video
ID : 0
Format : MPEG-4 Visual
Format profile : Advanced Simple@L5
Format settings, BVOP : 1
Format settings, QPel : No
Format settings, GMC : No warppoints
Format settings, Matrix : Default (H.263)
Codec ID : XVID
Codec ID/Hint : XviD
Duration : 1h 2mn
Bit rate : 1 500 Kbps
Width : 704 pixels
Height : 528 pixels
Display aspect ratio : 4:3
Frame rate : 25.000 fps
Color space : YUV
Chroma subsampling : 4:2:0
Bit depth : 8 bits
Scan type : Progressive
Compression mode : Lossy
Bits/(Pixel*Frame) : 0.161
Stream size : 667 MiB (92%)
Writing library : XviD 1.2.1 (UTC 2008-12-04)

Audio
ID : 1
Format : MPEG Audio
Format version : Version 1
Format profile : Layer 3
Codec ID : 55
Codec ID/Hint : MP3
Duration : 1h 2mn
Bit rate mode : Constant
Bit rate : 128 Kbps
Channel(s) : 2 channels
Sampling rate : 48.0 KHz
Compression mode : Lossy
Stream size : 56.9 MiB (8%)
Alignment : Aligned on interleaves
Interleave, duration : 40 ms (1.00 video frame)
Interleave, preload duration : 504 ms
Writing library : LAME3.98r
Encoding settings : -m s -V 4 -q 2 -lowpass 17 -b 128
01. Шеф-повар ресторана-кафе «Булошная» Владимир Мухин
Маковый торт
Кисель
Мороженое из сметаны
Яблочные оладьи
Мороженое из черного хлеба с мандаринами
Сбитень «Суздальский»
02. Шеф-кондитер сети ресторанов «Грабли» Рамунс Даугинс
Яблоко в миндальной шубе
Шоколадно-банановый торт
Зимнее пирожное
Пряное печенье
03. Итальянский пиццайоло Винченцо Делилло
Пицца с шоколадом
Пицца с клубникой
Пицца с кремом и шоколадом
Пицца крем-брюлле
Пицца с бананами
Пицца с ягодами
Пицца с грушами
Пицца с ананасом
04. Хозяйка студии "Авторские торты" Юлия Артемова
Шоколадный пасхальный кекс
Медово-ореховые пряники
Песочное печенье с имбирем и маком
Марципан
05. Шеф-кондитер пекарни-кондитерской "Волконский" Александр Макаров
Торт фруктово-ягодный
Торт шоколадно-малиновый
06. Шеф-кондитер пекарни-кондитерской "Волконский" Александр Макаров
Ягодный чибуст
Блины с апельсиновым суфле
Качество: SATRip
Формат: AVI
Видео кодек: XviD
Аудио кодек: MP3
Видео: XviD, 704x528, 4:3, 1500 kbps, 25 fps
Аудио: MP3, 128 kbps, 48.0 KHz, 2 ch

Постеры

Соцсети

 

Статистика

Автор: Stepan
Добавлен: 18 сен 2016, 23:51
Размер: 3.48 ГБ
Размер: 3 733 235 712 байт
Сидеров: 6
Личеров: 1
Скачали: 0
Здоровье: 100%
Раздающих: 100%
Статус:
Скорость скачивания: 0 байт/сек
Скорость раздачи: 0 байт/сек
Последний сидер: 1 месяц 15 дней 23 часа 13 минут 20 секунд назад
Последний личер: 1 месяц 15 дней 23 часа 13 минут 20 секунд назад
Приватный: Нет (DHT включён)
Кулинария Скачать торрент
Скачать торрент
[ Размер 18.34 КБ / Просмотров 0 ]

Поделиться



Вернуться в Кулинария