Завтрак с Юлией Высоцкой за 2014 год / добавлены выпуски за Сентябрь-Октябрь [2014, Кулинарное шоу, SATRip, RUS] (Видеоурок)

Рецепты салатов, закусок, мясных блюд, горячих напитков и сладких блюд
Торрент Сидеров Личеров Размер
torrent_4733096.torrent
4 2 9.79 ГБ
Аватара пользователя
Stepan
Администратор
Сообщения: 52386
Зарегистрирован: 05 ноя 2011, 20:36

Завтрак с Юлией Высоцкой за 2014 год / добавлены выпуски за Сентябрь-Октябрь [2014, Кулинарное шоу, SATRip, RUS] (Видеоурок)

Сообщение Stepan » 18 сен 2016, 23:51

Завтрак с Юлией Высоцкой за 2014 год / добавлены выпуски за Сентябрь-Октябрь

Страна: Россия
Тематика: Кулинарное шоу
Тип раздаваемого материала: Видеоурок
Продолжительность: ~ 00:07:57
Год выпуска: 2014

Язык: Русский
Перевод: Не требуется

Описание: Юлия Высоцкая - актриса и популярная телеведущая воскресной программы «Едим дома» - рассказывает о том, как приготовить вкусный и полезный завтрак. Всего за 5 минут в формате телевизионного кулинарного шоу Юлия поделится полезными советами, с помощью которых вы сможете не только накормить завтраком своих домашних, но и поднять себе настроение, а организм настроить на рабочую волну.

Релиз:
Tarjaa

Состав раздачи:
В раздачу входит xls файл с полным каталогом передач "Завтрак с Юлией Высоцкой" 2014 года.
В xls файле названия рецептов кликабельные - по нажатию попадаете на рецепт на оф.сайте прграммы "Завтрак с Юлией

MediaInfo:
General
Complete name : Zavtrak.s.Juliej.Vysockoj.2014_Tarjaa\Zavtrak.s.Juliej.Vysockoj.(2014.03.14)_Tarjaa.avi
Format : AVI
Format/Info : Audio Video Interleave
File size : 74.1 MiB
Duration : 5mn 57s
Overall bit rate : 1 738 Kbps
Writing application : VirtualDubMod 1.5.10.3 | www.virtualdub-fr.org || (build 2550/release)
Writing library : VirtualDubMod build 2550/release

Video
ID : 0
Format : MPEG-4 Visual
Format profile : Advanced Simple@L5
Format settings, BVOP : 1
Format settings, QPel : No
Format settings, GMC : No warppoints
Format settings, Matrix : Default (H.263)
Codec ID : XVID
Codec ID/Hint : XviD
Duration : 5mn 57s
Bit rate : 1 600 Kbps
Width : 704 pixels
Height : 400 pixels
Display aspect ratio : 16:9
Frame rate : 25.000 fps
Color space : YUV
Chroma subsampling : 4:2:0
Bit depth : 8 bits
Scan type : Progressive
Compression mode : Lossy
Bits/(Pixel*Frame) : 0.227
Stream size : 68.2 MiB (92%)
Writing library : XviD 1.2.1 (UTC 2008-12-04)

Audio
ID : 1
Format : MPEG Audio
Format version : Version 1
Format profile : Layer 3
Codec ID : 55
Codec ID/Hint : MP3
Duration : 5mn 57s
Bit rate mode : Constant
Bit rate : 128 Kbps
Channel count : 2 channels
Sampling rate : 48.0 KHz
Compression mode : Lossy
Stream size : 5.46 MiB (7%)
Alignment : Aligned on interleaves
Interleave, duration : 40 ms (1.00 video frame)
Interleave, preload duration : 504 ms
Writing library : LAME3.98r
Encoding settings : -m s -V 4 -q 2 -lowpass 17 -b 128
Качество: SATRip
Формат: AVI
Видео кодек: XviD
Аудио кодек: MP3
Видео: Xvid 704x400 25.00fps Bit rate:~1 600 Kbps
Аудио: MPEG Audio Layer 3 44100Hz stereo ~ 128kbps [Stream 01]
добавлены выпуски за Сентябрь-Октябрь
перезалейте торрент
У вас нет необходимых прав для просмотра вложений в этом сообщении.