Хестон Блюменталь. Чудеса на кухне / Heston's Fantastical Food / 7 выпуска из 7 [2012, ТВ-шоу, кулинария, SATRip, RUS] (Видеоурок)

Рецепты салатов, закусок, мясных блюд, горячих напитков и сладких блюд
Торрент Сидеров Личеров Размер
torrent_4722639.torrent
13 5 3.93 ГБ
Аватара пользователя
Stepan
Администратор
Сообщения: 52267
Зарегистрирован: 05 ноя 2011, 20:36

Хестон Блюменталь. Чудеса на кухне / Heston's Fantastical Food / 7 выпуска из 7 [2012, ТВ-шоу, кулинария, SATRip, RUS] (Видеоурок)

Сообщение Stepan » 18 сен 2016, 23:52

Хестон Блюменталь. Чудеса на кухне / Heston's Fantastical Food / 7 выпуска из 7

Страна: Великобритания
Тематика: ТВ-шоу, кулинария
Тип раздаваемого материала: Видеоурок
Продолжительность: ~ 00:48:00
Год выпуска: 2012
Ведущий: Хестон Блюменталь

Язык: Русский
Перевод: Профессиональный (многоголосый, закадровый)

Описание: Все помнят волшебные дни детства, когда любая еда превращалась в праздник. Потом мы повзрослели, и ощущение чуда исчезло. Шеф-повар Хестон Блюменталь готов приложить неимоверные усилия, чтобы вернуть эту магию и помочь всем вновь почувствовать себя детьми. Даже если для этого потребуется создать самое большое в мире яйцо, гигантское мороженое или накормить завтраком целый поезд.

Релиз:
Tarjaa


Содержание:
1.Heston's Big Breakfast/ Завтрак
2.The Sky High '99 / Мороженое
3.Blumenthal's Big Brew / Чаепитие
4.Heston and the Giant Sweet Factory / Фабрика сладостей
5.The Pub in a Pie / Британский Паб
6.The Massive Lunch Box / Школьные завтраки
07.Heston's Fantastical Christmas / Волшебное Рождество
MediaInfo:
General
Complete name : Heston's Fantastical Food_Tarjaa\Heston's Fantastical Food.v.02.The Sky High'99_Tarjaa.avi
Format : AVI
Format/Info : Audio Video Interleave
File size : 578 MiB
Duration : 46mn 31s
Overall bit rate : 1 738 Kbps
Writing application : VirtualDubMod 1.5.10.3 | www.virtualdub-fr.org || (build 2550/release)
Writing library : VirtualDubMod build 2550/release

Video
ID : 0
Format : MPEG-4 Visual
Format profile : Advanced Simple@L5
Format settings, BVOP : 1
Format settings, QPel : No
Format settings, GMC : No warppoints
Format settings, Matrix : Default (H.263)
Codec ID : XVID
Codec ID/Hint : XviD
Duration : 46mn 31s
Bit rate : 1 600 Kbps
Width : 704 pixels
Height : 400 pixels
Display aspect ratio : 16:9
Frame rate : 25.000 fps
Color space : YUV
Chroma subsampling : 4:2:0
Bit depth : 8 bits
Scan type : Progressive
Compression mode : Lossy
Bits/(Pixel*Frame) : 0.227
Stream size : 532 MiB (92%)
Writing library : XviD 1.2.1 (UTC 2008-12-04)

Audio
ID : 1
Format : MPEG Audio
Format version : Version 1
Format profile : Layer 3
Codec ID : 55
Codec ID/Hint : MP3
Duration : 46mn 31s
Bit rate mode : Constant
Bit rate : 128 Kbps
Channel count : 2 channels
Sampling rate : 48.0 KHz
Compression mode : Lossy
Stream size : 42.6 MiB (7%)
Alignment : Aligned on interleaves
Interleave, duration : 40 ms (1.00 video frame)
Interleave, preload duration : 504 ms
Writing library : LAME3.98r
Encoding settings : -m s -V 4 -q 2 -lowpass 17 -b 128
Качество: SATRip
Формат: AVI
Видео кодек: XviD
Аудио кодек: MP3
Видео: Xvid 704x400 25.00fps ~ 1600 Кбит/с
Аудио: MPEG Audio Layer 3 48000Hz stereo 128kbps [Stream 01]
Добавлен 7 выпуск
перезалейте торрент
У вас нет необходимых прав для просмотра вложений в этом сообщении.