Сообщение

Джейми Оливер: Хрустящее Рождество / Jamie's cracking christmas [2014, Кулинарное шоу, DVB, RUS/ENG]

Сообщение Stepan » 18 сен 2016, 23:53

Джейми Оливер: Хрустящее Рождество / Jamie's cracking christmas

Страна: Соединённое Королевство Великобритании и Северной Ирландии
Тематика: Кулинарное шоу
Тип раздаваемого материала: Кулинарное шоу
Продолжительность: 00:46:43
Год выпуска: 2014

Язык: Русский
Перевод: Профессиональный (многоголосый, закадровый)

Язык субтитров: нет
Описание: Рождество - это не только большой праздник, это ещё и волшебные дни до и после него: большие изысканные обеды, сезонные торжества и уютные сборища с друзьями и семьёй. Это время, когда нужно баловать себя особенной едой...

Качество: DVB
Формат: TS
Видео кодек: MPEG2
Аудио кодек: MP2
Видео: MPEG 2, 720x576 (16:9), 25.000 fps, 5 000 Kbps (0.218 bit/pixel)
Аудио: MP2, 48.0 KHz, 2 ch, 192 Kbps, CBR
Аудио 2: MP2, 48.0 KHz, 2 ch, 192 Kbps, CBR
Код:
Код: Выделить всё
General
ID                          : 16 (0x10)
Complete name               : E:\Jamie\Jamie's.Cracking.Christmas.DVB.ts
Format                      : MPEG-TS
File size                   : 933 MiB
Duration                    : 46mn 43s
Overall bit rate mode       : Variable
Overall bit rate            : 2 791 Kbps

Video
ID                          : 41 (0x29)
Menu ID                     : 3 (0x3)
Format                      : MPEG Video
Format version              : Version 2
Format profile              : Main@Main
Format settings, BVOP       : Yes
Format settings, Matrix     : Custom
Format settings, GOP        : Variable
Format settings, picture st : Frame
Codec ID                    : 2
Duration                    : 46mn 43s
Bit rate mode               : Variable
Bit rate                    : 2 265 Kbps
Maximum bit rate            : 5 000 Kbps
Width                       : 720 pixels
Height                      : 576 pixels
Display aspect ratio        : 16:9
Frame rate                  : 25.000 fps
Standard                    : PAL
Color space                 : YUV
Chroma subsampling          : 4:2:0
Bit depth                   : 8 bits
Scan type                   : Interlaced
Scan order                  : Top Field First
Compression mode            : Lossy
Bits/(Pixel*Frame)          : 0.218
Time code of first frame    : 00:00:00:00
Time code source            : Group of pictures header
GOP, Open/Closed            : Open
Stream size                 : 757 MiB (81%)
Writing library             : (dvd5: Jun 16 2014)

Audio #1
ID                          : 44 (0x2C)
Menu ID                     : 3 (0x3)
Format                      : MPEG Audio
Format version              : Version 1
Format profile              : Layer 2
Mode                        : Joint stereo
Mode extension              : Intensity Stereo + MS Stereo
Codec ID                    : 3
Duration                    : 46mn 43s
Bit rate mode               : Constant
Bit rate                    : 192 Kbps
Channel(s)                  : 2 channels
Sampling rate               : 48.0 KHz
Compression mode            : Lossy
Stream size                 : 64.2 MiB (7%)

Audio #2
ID                          : 45 (0x2D)
Menu ID                     : 3 (0x3)
Format                      : MPEG Audio
Format version              : Version 1
Format profile              : Layer 2
Mode                        : Joint stereo
Mode extension              : Intensity Stereo + MS Stereo
Codec ID                    : 3
Duration                    : 46mn 43s
Bit rate mode               : Constant
Bit rate                    : 192 Kbps
Channel(s)                  : 2 channels
Sampling rate               : 48.0 KHz
Compression mode            : Lossy
Stream size                 : 64.2 MiB (7%)





Постеры

Соцсети

 

Статистика

Автор: Stepan
Добавлен: 18 сен 2016, 23:53
Размер: 932.72 МБ
Размер: 978 023 000 байт
Сидеров: 7
Личеров: 1
Скачали: 1
Здоровье: 100%
Раздающих: 100%
Статус:
Скорость скачивания: 0 байт/сек
Скорость раздачи: 0 байт/сек
Последний сидер: 28 дней 1 час 9 минут 48 секунд назад
Последний личер: 28 дней 1 час 9 минут 48 секунд назад
Приватный: Нет (DHT включён)
Кулинария Скачать торрент
Скачать торрент
[ Размер 5.02 КБ / Просмотров 4 ]

Поделиться



  • Похожие торренты
    Ответы
    Просмотры
    Последнее сообщение

Вернуться в Кулинария