Сообщение

Домашние блюда с Джейми Оливером / Jamie's comfort food (1-6 из 1-8) [2014, Кулинарное шоу, HDTV, RUS/ENG]

Сообщение Stepan » 18 сен 2016, 23:53

Домашние блюда с Джейми Оливером / Jamie's comfort food

Страна: Соединённое Королевство Великобритании и Северной Ирландии
Тематика: Кулинарное шоу
Тип раздаваемого материала: Видеоурок
Продолжительность: 00:47:52
Год выпуска: 2014

Язык: Русский + Английский
Перевод: Профессиональный (одноголосый)

Язык субтитров: нет
Описание: «Домашние блюда с Джейми Оливером» — это увлекательная кулинарная передача, полная рецептов любимых британцами блюд: это и заново открытая британская классика, и блюда для готовки на открытом воздухе и потрясающие пудинги.

Доп. информация:
Чистая запись с канала FoxLife HD без перекодирования.
Код:
Код: Выделить всё
General
ID                          : 1 (0x1)
Complete name               : E:\Jamie\Comfort Food Jamie HD\Comfort.Food.Jamie.S01.E01.HDTV.ts
Format                      : MPEG-TS
File size                   : 2.66 GiB
Duration                    : 47mn 52s
Overall bit rate mode       : Variable
Overall bit rate            : 7 961 Kbps
Maximum Overall bit rate    : 35.5 Mbps

Video
ID                          : 4113 (0x1011)
Menu ID                     : 1 (0x1)
Format                      : AVC
Format/Info                 : Advanced Video Codec
Format profile              : Main@L4.0
Format settings, CABAC      : Yes
Format settings, ReFrames   : 4 frames
Format settings, GOP        : M=3, N=12
Codec ID                    : 27
Duration                    : 47mn 52s
Bit rate                    : 7 245 Kbps
Width                       : 1 920 pixels
Height                      : 1 080 pixels
Display aspect ratio        : 16:9
Frame rate                  : 25.000 fps
Standard                    : Component
Color space                 : YUV
Chroma subsampling          : 4:2:0
Bit depth                   : 8 bits
Scan type                   : MBAFF
Scan order                  : Top Field First
Bits/(Pixel*Frame)          : 0.140
Stream size                 : 2.42 GiB (91%)
Color primaries             : BT.709
Transfer characteristics    : BT.709
Matrix coefficients         : BT.709
Color range                 : Limited

Audio #1
ID                          : 4352 (0x1100)
Menu ID                     : 1 (0x1)
Format                      : MPEG Audio
Format version              : Version 1
Format profile              : Layer 2
Codec ID                    : 4
Duration                    : 47mn 52s
Bit rate mode               : Constant
Bit rate                    : 160 Kbps
Channel(s)                  : 2 channels
Sampling rate               : 48.0 KHz
Compression mode            : Lossy
Stream size                 : 54.8 MiB (2%)
Language                    : Russian

Audio #2
ID                          : 4353 (0x1101)
Menu ID                     : 1 (0x1)
Format                      : MPEG Audio
Format version              : Version 1
Format profile              : Layer 2
Codec ID                    : 4
Duration                    : 47mn 52s
Bit rate mode               : Constant
Bit rate                    : 160 Kbps
Channel(s)                  : 2 channels
Sampling rate               : 48.0 KHz
Compression mode            : Lossy
Stream size                 : 54.8 MiB (2%)
Language                    : English

Качество: HDTV
Формат: TS
Видео кодек: H.264
Аудио кодек: MP2
Видео:AVC, 1920x1080 (16:9), 25.000 fps, 7 245 Kbps (0.140 bit/pixel)
Аудио: MP2, 48.0 KHz, 2 ch, 160 Kbps, CBR (Russian)
Аудио 2: MP2, 48.0 KHz, 2 ch, 160 Kbps, CBR (English)




Постеры

Соцсети

 

Статистика

Автор: Stepan
Добавлен: 18 сен 2016, 23:53
Размер: 15.46 ГБ
Размер: 16 605 040 216 байт
Сидеров: 19
Личеров: 6
Скачали: 0
Здоровье: 100%
Раздающих: 100%
Статус:
Скорость скачивания: 0 байт/сек
Скорость раздачи: 0 байт/сек
Последний сидер: 1 месяц 18 дней 15 часов 56 минут 1 секунду назад
Последний личер: 1 месяц 18 дней 15 часов 56 минут 1 секунду назад
Приватный: Нет (DHT включён)
Кулинария Скачать торрент
Скачать торрент
[ Размер 78.14 КБ / Просмотров 0 ]

Поделиться



Вернуться в Кулинария