Джейми Оливер. Готовим за 15 минут / Jamie’s 15 minute meals (1-40 из 40) [2012, Кулинарное шоу, HDTV, RUS/ENG]

Рецепты салатов, закусок, мясных блюд, горячих напитков и сладких блюд
Торрент Сидеров Личеров Размер
torrent_4889063.torrent
24 8 53.95 ГБ
Аватара пользователя
Stepan
Администратор
Сообщения: 52267
Зарегистрирован: 05 ноя 2011, 20:36

Джейми Оливер. Готовим за 15 минут / Jamie’s 15 minute meals (1-40 из 40) [2012, Кулинарное шоу, HDTV, RUS/ENG]

Сообщение Stepan » 18 сен 2016, 23:54

Джейми Оливер. Готовим за 15 минут / Jamie’s 15 minute meals

Страна: Великобритания
Тематика: Кулинарное шоу
Тип раздаваемого материала: Видеоурок
Продолжительность: 00:23:29
Год выпуска: 2012

Язык: Русский + Английский
Перевод: Профессиональный (одноголосый)

Язык субтитров: нет
Описание: Джейми Оливер, в свое время научивший Великобританию и весь мир, как приготовить обед за полчаса, на этот раз решил пойти дальше и установил новый норматив: 15 минут – и ни секундой больше! Именно столько времени занимает приготовление каждого обеда в новом телешоу Джейми. Очевидно, что просто так обед (пусть даже небольшой, состоящий обычно из основного блюда с гарниром) за 15 минут не приготовить, так что в ход идет множество хитростей, секретов и трюков, здорово сокращающих время готовки. Именно в них основная изюминка этого телешоу, основная задача которого – привлечь на кухню тех, кто не прочь смыться оттуда как можно скорее.

Доп. информация:
Код:

Код: Выделить всё

General
ID                                       : 1 (0x1)
Complete name                            : E:\Jamie\Jamies 15 Minute Meals HD\Jamies.15.Minute.Meals.S01E19.HDTV.ts
Format                                   : MPEG-TS
File size                                : 1.30 GiB
Duration                                 : 23mn 29s
Overall bit rate mode                    : Variable
Overall bit rate                         : 7 947 Kbps
Maximum Overall bit rate                 : 35.5 Mbps

Video
ID                                       : 4113 (0x1011)
Menu ID                                  : 1 (0x1)
Format                                   : AVC
Format/Info                              : Advanced Video Codec
Format profile                           : Main@L4.0
Format settings, CABAC                   : Yes
Format settings, ReFrames                : 4 frames
Codec ID                                 : 27
Duration                                 : 23mn 29s
Bit rate                                 : 7 232 Kbps
Width                                    : 1 920 pixels
Height                                   : 1 080 pixels
Display aspect ratio                     : 16:9
Frame rate                               : 25.000 fps
Standard                                 : Component
Color space                              : YUV
Chroma subsampling                       : 4:2:0
Bit depth                                : 8 bits
Scan type                                : MBAFF
Bits/(Pixel*Frame)                       : 0.139
Stream size                              : 1.19 GiB (91%)
Color primaries                          : BT.709
Transfer characteristics                 : BT.709
Matrix coefficients                      : BT.709

Audio #1
ID                                       : 4352 (0x1100)
Menu ID                                  : 1 (0x1)
Format                                   : MPEG Audio
Format version                           : Version 1
Format profile                           : Layer 2
Codec ID                                 : 4
Duration                                 : 23mn 29s
Bit rate mode                            : Constant
Bit rate                                 : 160 Kbps
Channel(s)                               : 2 channels
Sampling rate                            : 48.0 KHz
Compression mode                         : Lossy
Stream size                              : 26.9 MiB (2%)
Language                                 : Russian

Audio #2
ID                                       : 4353 (0x1101)
Menu ID                                  : 1 (0x1)
Format                                   : MPEG Audio
Format version                           : Version 1
Format profile                           : Layer 2
Codec ID                                 : 4
Duration                                 : 23mn 29s
Bit rate mode                            : Constant
Bit rate                                 : 160 Kbps
Channel(s)                               : 2 channels
Sampling rate                            : 48.0 KHz
Compression mode                         : Lossy
Stream size                              : 26.9 MiB (2%)
Language                                 : English
Качество: HDTV
Формат: TS
Видео кодек: H.264
Аудио кодек: MP2
Видео: MPEG4 Video (H264) 1920x1080 25fps [V: h264 main L4.0, yuv420p, 1920x1080]
Аудио: MP2 48000Hz stereo 160kbps [A: Russian [rus] (mp2, 48000 Hz, stereo, 160 kb/s)]
Аудио 2: MP2 48000Hz stereo 160kbps [A: English [eng] (mp2, 48000 Hz, stereo, 160 kb/s)]




У вас нет необходимых прав для просмотра вложений в этом сообщении.