Сообщение

Время обедать. Горячее с говядиной, салат с картофелем и десерт (Эфир 30.10.2012) [2012, Кулинария, DVB, RUS]

Сообщение Stepan » 18 сен 2016, 23:54

Время обедать. Горячее с говядиной, салат с картофелем и десерт (Эфир 30.10.2012)

Страна: Россия
Тематика: Кулинария
Тип раздаваемого материала: Тв-шоу
Продолжительность: 00:29:34
Год выпуска: 2012

Язык: Русский
Перевод: Не требуется

Ведущие: Наташа Королева, Людмила Порывай

Описание: В программе «Время обедать!» зрителей ждут не только интересные рецепты, но и ценные советы от шеф-поваров, известных рестораторов и модных диетологов, а также национальные блюда, их история и рекомендации, как приготовить не только вкусное, но и полезное блюдо. Мы постараемся раскрыть секреты профессиональных поваров, которые может воплотить у себя на кухне каждый домашний кулинар. Вас ждут ответы на часто задаваемые вопросы: какие продукты можно смешивать, а какие нет? какие приправы использовать для того или иного блюда? можно ли делить еду на «модную и немодную»? как правильно украшать блюда? и многое другое.

В этом выпуске: Домохозяйка Ольга Деева против шеф-повара Кирилла Голикова. Они готовят горячее с говядиной, салат с картофелем и десерт.

Доп. информация: Релиз -


Рип чистый. Без посторонних надписей. Выкладывается как есть.

Качество: DVB
Формат: MPG
Видео кодек: MPG2
Аудио кодек: MP2
Видео: 720x576 @ 1024x576 (16:9) 25.00fps 5 810 Kbps, 0.560 bit/pixel
Аудио: MPEG Audio 48000Hz stereo 192 Кбит/сек

Код: Выделить всё
General
Complete name                            : J:\ВЫКЛАДКА\DVB\Время обедать\Время обедать. Горячее с говядиной, салат с картофелем и десерт (Эфир 30.10.2012) (MYDIMKA) (02).mpg
Format                                   : MPEG-PS
File size                                : 1.26 GiB
Duration                                 : 29mn 34s
Overall bit rate mode                    : Variable
Overall bit rate                         : 6 119 Kbps

Video
ID                                       : 224 (0xE0)
Format                                   : MPEG Video
Format version                           : Version 2
Format profile                           : Main@Main
Format settings, BVOP                    : Yes
Format settings, Matrix                  : Custom
Format settings, GOP                     : M=1, N=17
Duration                                 : 29mn 34s
Bit rate mode                            : Variable
Bit rate                                 : 5 806 Kbps
Maximum bit rate                         : 15.0 Mbps
Width                                    : 720 pixels
Height                                   : 576 pixels
Display aspect ratio                     : 16:9
Frame rate                               : 25.000 fps
Standard                                 : PAL
Color space                              : YUV
Chroma subsampling                       : 4:2:0
Bit depth                                : 8 bits
Scan type                                : Interlaced
Scan order                               : Top Field First
Compression mode                         : Lossy
Bits/(Pixel*Frame)                       : 0.560
Stream size                              : 1.20 GiB (95%)

Audio
ID                                       : 192 (0xC0)
Format                                   : MPEG Audio
Format version                           : Version 1
Format profile                           : Layer 2
Duration                                 : 29mn 34s
Bit rate mode                            : Constant
Bit rate                                 : 192 Kbps
Channel(s)                               : 2 channels
Sampling rate                            : 48.0 KHz
Compression mode                         : Lossy
Delay relative to video                  : 17ms
Stream size                              : 40.6 MiB (3%)

Постеры

Соцсети

 

Статистика

Автор: Stepan
Добавлен: 18 сен 2016, 23:54
Размер: 1.26 ГБ
Размер: 1 357 103 104 байт
Сидеров: 1
Личеров: 0
Скачали: 0
Здоровье: 100%
Раздающих: 100%
Статус:
Скорость скачивания: 0 байт/сек
Скорость раздачи: 0 байт/сек
Последний сидер: 28 дней 6 часов 28 минут 17 секунд назад
Последний личер: Нет
Приватный: Нет (DHT включён)
Кулинария Скачать торрент
Скачать торрент
[ Размер 13.22 КБ / Просмотров 0 ]

Поделиться



  • Похожие торренты
    Ответы
    Просмотры
    Последнее сообщение

Вернуться в Кулинария