Сообщение

Время обедать! (Выпуски за Март) / 2014 [2014, тв-передача, кулинария, HDTVRip (720p) , RUS] (Видеоурок)

Сообщение Stepan » 18 сен 2016, 23:55

Время обедать! (Выпуски за Март) / 2014

Страна: Россия, Первый канал
Тематика: тв-передача, кулинария
Тип раздаваемого материала: Видеоурок
Продолжительность: ~ 00:35:00
Год выпуска: 2014

Язык: Русский
Перевод: Не требуется

Описание: «Время обедать!» - это оригинальный российский формат, идея которого в том, чтобы столкнуть домашнюю кухню и ресторанную. В новом кулинарном проекте Первого канала домохозяйки бросают вызов мастерам высокой кухни.Они уверены, что мамин борщ самый вкусный. Так ли это? В каждом выпуске программы ведущие шоу популярная певица Наташа Королева и ее мама, Людмила Порывай (в прошлом дирижер киевской хоровой капеллы, а сейчас хозяйка школы для одаренных детей в Майами), приглашают в студию двух участников для честного состязания. Цель которого выяснить - кто готовит лучше? - домохозяйки или профессиональные шеф-повара.

Релиз:
Tarjaa


Содержание:
Выпуск 362 (эфир от 2014.03.04)
Постный пирог против постного чизбургера
В программе "Время обедать!" домохозяйка Екатерина Куканова делится рецептом постной выпечки, а шеф-повар Игорь Довгеля рассказывает, как приготовить постный чизбургер. Также они предлагают свои варианты постного горохового супа.
Выпуск 363 (эфир от 2014.03.05)
Постные манты против постных хинкали
В программе "Время обедать!" певица, народная артистка Узбекистана Наталья Нурмухамедова готовит постные манты, а грузинский шеф-повар Шалва Микава – постные хинкали. Также они предлагают традиционные мясные варианты этих блюд.
Выпуск 364 (эфир от 2014.03.06)
Цыпленок пареный
Домохозяйка Залина Сарайпова уверена: нет ничего лучше, чем жареная еда. Шеф-повар Андрей Звенигородский настаивает: только вареные продукты могут быть вкусными.
Выпуск 365 (эфир от 2014.03.07)
Готовим обед к 8 Марта
В программе "Время обедать!" певец Дмитрий Маликов готовит вкусный, полезный и в то же время простой в исполнении обед, а кухмейстер Олег Сотников подаст рыбные блюда в изысканной ресторанной манере.
Выпуск 366 (эфир от 2014.03.11)
Худеем вкусно после праздников
Домохозяйка Ольга Литвиненко и шеф-повар Александр Соляников готовят вкусные и полезные блюда из куриной грудки и филе индейки.
Выпуск 367 (эфир от 2014.03.12)
Ароматный суржевый хлеб против сытного хлеба с отрубями
Потомственная казачка Татьяна Толочко и пекарь-кондитер Александр Макаров учат печь вкусный домашний хлеб.
Выпуск 368 (эфир от 2014.03.13)
Карельские калитки против итальянской фокаччи
Домохозяйка Алла Илларионова готовит карельские пирожки – калитки, а шеф-повар Михаил Андреев предлагает итальянские лепешки - фокаччи.
Выпуск 369 (эфир от 2014.03.14)
Домашний бутерброд с пряностями против гамбургера
В программе "Время обедать!" празднуют день рождения бутерброда. Певица Этери Бериашвили готовит домашние бутерброды, а бренд-шеф Стивен Турси – гамбургеры и сэндвичи.
Выпуск 370 (эфир от 2014.03.17)
Банановый хлеб против рулета из бананов
Домохозяйка Татьяна Бордзиловская шеф-повар Владимир Морозов готовят обед из бананов. Домохозяйка использует бананы стандартного размера, а шеф-повар отдает предпочтение мини-бананам.
Выпуск 371 (эфир от 2014.03.18)
Тефтели против митболов. Что вкуснее?
Домохозяйка из Краснодара Виктория Никитюк готовит русские тефтели, а шеф-повар Алексей Козырицкий показывает рецепты популярных в Европе митболов.
Выпуск 372 (эфир от 2014.03.19)
Витаминный обед от Илзе Лиепы
В программе "Время обедать!" народная артистка России Илзе Лиепа и шеф-повар Игорь Сусь соревнуются в приготовлении легких, полезных и богатых витаминами блюд. Илзе Лиепа делает салат и рыбу на пару, а шеф-повар показывает, как легко приготовить яйца-пашот.
Выпуск 373 (эфир от 2014.03.20)
Оладушки из зелени против греческого салата
Актриса Татьяна Проценко, знаменитая Мальвина из фильма "Приключения Буратино", готовит обед с зеленью, которую она вырастила на своем подоконнике. Шеф-повар Рустам Тангиров тоже выращивает зелень для своих блюд самостоятельно.
Выпуск 374 (эфир от 2014.03.21)
Витаминный обед от певицы Славы
Участники программы "Время обедать!" делятся рецептами блюд, способных поднять настроение на целый день. Певица Слава готовит салат и свинину с мандаринами, а шеф-повар Александр Миротадзе предлагает свинину под апельсиновым соусом и салат "Куриная радость".
Выпуск 375 (эфир от 2014.03.24)
Курица на бутылке против карамельных окорочков
В программе "Время обедать!" домохозяйка из Белоруссии Анна Громыко и шеф-повар Евгений Мещеряков готовят блюда из курицы по оригинальным рецептам.
Выпуск 376 (эфир от 2014.03.25)
Свекла: что приготовить и как подать
В программе "Время обедать!" домохозяйка Вера Белоусова и шеф-повар Роман Юдин готовят блюда из свеклы и показывают, как их красиво подать.
Выпуск 377 (эфир от 2014.03.26)
Все мифы о вкусном и ароматном картофеле
Домохозяйка Татьяна Сидашова и шеф-повар, кулинарный блогер Роман Лазарев готовят оригинальные блюда из картофеля: Татьяна – из обычного, а повар – из сладкого картофеля батат.
Выпуск 378 (эфир от 2014.03.27)
Корзиночки из сыра против сырного фондю
Домохозяйка Елена Сальникова и шеф-повар Сергей Свиридов соревнуются в приготовлении сырного супа и закусок из сыра.
Выпуск 379 (эфир от 2014.03.28)
Пикантная свининка в беконе против свиного шницеля
В программе "Время обедать!" домохозяйка Олеся Герасимова и шеф-повар Павел Беляков соревнуются в приготовлении мясных блюд. Олеся варит суп-гуляш – традиционное кушанье ее родного города Буя, а Павел делится рецептом мартовского супа с говяжьей вырезкой и медальонов из свинины с беконом и яблочным соком.
Выпуск 380 (эфир от 2014.03.31)
Семейная битва: жена против мужа
В программе "Время обедать!" выясняют, есть ли место на кухне двум кулинарам. Нора Ронгони вызвала на дуэль своего мужа, шеф-повара Пьетро Ронгони.
MediaInfo:
General
Unique ID : 249566888254709821171849714120752302784 (0xBBC0D5961BDBE0B0AAF22DD883FF0AC0)
Complete name : Vremja.Obedat.(Vypuski.za.Mart).2014.mkv.HDTVRip.Tarjaa\Vremja.Obedat.v363.(2014.03.05).2014.mkv.HDTVRip_Tarjaa.mkv
Format : Matroska
Format version : Version 2
File size : 576 MiB
Duration : 29mn 55s
Overall bit rate : 2 694 Kbps
Encoded date : UTC 2014-03-18 17:22:32
Writing application : mkvmerge v4.9.1 ('Ich will') сборка от Aug 10 2011 09:31:20
Writing library : libebml v1.2.1 + libmatroska v1.2.0

Video
ID : 1
Format : AVC
Format/Info : Advanced Video Codec
Format profile : High@L3.1
Format settings, CABAC : Yes
Format settings, ReFrames : 4 frames
Codec ID : V_MPEG4/ISO/AVC
Duration : 29mn 55s
Bit rate : 2 500 Kbps
Width : 1 280 pixels
Height : 720 pixels
Display aspect ratio : 16:9
Frame rate mode : Constant
Frame rate : 25.000 fps
Color space : YUV
Chroma subsampling : 4:2:0
Bit depth : 8 bits
Scan type : Progressive
Bits/(Pixel*Frame) : 0.109
Stream size : 524 MiB (91%)
Writing library : x264 core 116 r2074 2641b9e
Encoding settings : cabac=1 / ref=3 / deblock=1:0:0 / analyse=0x3:0x113 / me=hex / subme=7 / psy=1 / psy_rd=1.00:0.00 / mixed_ref=1 / me_range=16 / chroma_me=1 / trellis=1 / 8x8dct=1 / cqm=0 / deadzone=21,11 / fast_pskip=1 / chroma_qp_offset=-2 / threads=4 / sliced_threads=0 / nr=0 / decimate=1 / interlaced=0 / bluray_compat=0 / constrained_intra=0 / bframes=3 / b_pyramid=2 / b_adapt=1 / b_bias=0 / direct=1 / weightb=1 / open_gop=0 / weightp=2 / keyint=250 / keyint_min=25 / scenecut=40 / intra_refresh=0 / rc_lookahead=40 / rc=2pass / mbtree=1 / bitrate=2500 / ratetol=1.0 / qcomp=0.60 / qpmin=0 / qpmax=69 / qpstep=4 / cplxblur=20.0 / qblur=0.5 / ip_ratio=1.40 / aq=1:1.00
Default : Yes
Forced : No

Audio
ID : 2
Format : AC-3
Format/Info : Audio Coding 3
Mode extension : CM (complete main)
Format settings, Endianness : Big
Codec ID : A_AC3
Duration : 29mn 55s
Bit rate mode : Constant
Bit rate : 192 Kbps
Channel count : 2 channels
Channel positions : Front: L R
Sampling rate : 48.0 KHz
Bit depth : 16 bits
Compression mode : Lossy
Stream size : 41.1 MiB (7%)
Default : Yes
Forced : No
Качество: HDTVRip (720p)
Формат: MKV
Видео кодек: H.264
Аудио кодек: AC3
Видео: MPEG4 Video (H264) 1280x720 25fps Bit rate:~ 2500 Kbps
Аудио: Dolby AC3 48000Hz stereo 192kbps
Добавлен:
Выпуск 380 (эфир от 2014.03.31) Семейная битва: жена против мужа

перезалейте торрент

Постеры

Соцсети

 

Статистика

Автор: Stepan
Добавлен: 18 сен 2016, 23:55
Размер: 10.67 ГБ
Размер: 11 455 088 928 байт
Сидеров: 2
Личеров: 0
Скачали: 0
Здоровье: 100%
Раздающих: 100%
Статус:
Скорость скачивания: 0 байт/сек
Скорость раздачи: 0 байт/сек
Последний сидер: 15 дней 22 часа 24 минуты 9 секунд назад
Последний личер: Нет
Приватный: Нет (DHT включён)
Кулинария Скачать торрент
Скачать торрент
[ Размер 55.5 КБ / Просмотров 0 ]

Поделиться



  • Похожие торренты
    Ответы
    Просмотры
    Последнее сообщение

Вернуться в Кулинария