Сообщение

Лучший повар америки / MastеrChef US / Сезон: 1 / Выпуск: 1-13 (13) [2010 г.,Реалити-шоу, кулинария, HDTVRip] RUS+ENG

Сообщение Stepan » 18 сен 2016, 23:56

Лучший повар америки 1 сезон / MastеrChef US Season 1

Страна: США
Тематика: кулинария
Тип раздаваемого материала: реалити-шоу
Продолжительность: ~ 00:40:00
Год выпуска: 2010
Язык: Русский
Перевод: Профессиональный (одноголосый)

Описание: Конкурс на звание лучшего кулинара-любителя Америки начался! Самых выдающихся шеф-поваров приглашают в Лос Анджелес, где им предстоить продемонстрировать свое умение судьям во главе со знаменитым ресторатором Гордоном Рамзи. В каждой серии участникам дается всего час на приготовление своего фирменного блюда. Победитель конкурса становится обладателем титула "Лучший шеф-повар Америки", получает 250 тысяч долларов и право издать книгу собственных кулинарных рецептов.

Качество: HDTVRip
Формат: AVI
Видео кодек: XviD
Аудио кодек: MP3

1 серия:
Video: Xvid 640x356 ~966 Kbps 23.976fps 0.177 bit/pixel
Audio1: MPEG Audio Layer 3 48000Hz stereo 128kbps [Rus]
Audio2: MPEG Audio Layer 3 48000Hz stereo 128kbps [Eng]
2-13 серии:
Video: Xvid 624x352 ~1030 Kbps 23.976fps ~0.195 bit/pixel
Audio1: MPEG Audio Layer 3 48000Hz stereo 128kbps [Rus]
Audio2: MPEG Audio Layer 3 48000Hz stereo 128kbps [Eng]
C:\Documents and Settings\Admin\Мои документы\Downloads\MC.S1-4\MC_US.S01\MC_US.S01E02.avi
General
Complete name : C:\Documents and Settings\Admin\Мои документы\Downloads\MC.S1-4\MC_US.S01\MC_US.S01E02.avi
Format : AVI
Format/Info : Audio Video Interleave
File size : 393 MiB
Duration : 42mn 1s
Overall bit rate : 1 308 Kbps
Writing application : VirtualDubMod 1.5.10.3 (build 2550/release)
Writing library : VirtualDubMod build 2550/release
Video #0
ID : 0
Format : MPEG-4 Visual
Format profile : Advanced Simple@L5
Format settings, BVOP : 2
Format settings, QPel : No
Format settings, GMC : No warppoints
Format settings, Matrix : Default (H.263)
Codec ID : XVID
Codec ID/Hint : XviD
Duration : 42mn 1s
Bit rate : 1 038 Kbps
Width : 624 pixels
Height : 352 pixels
Display aspect ratio : 16:9
Frame rate : 23.976 fps
Color space : YUV
Chroma subsampling : 4:2:0
Bit depth : 8 bits
Scan type : Progressive
Compression mode : Lossy
Bits/(Pixel*Frame) : 0.197
Stream size : 312 MiB (79%)
Writing library : XviD 1.2.1 (UTC 2008-12-04)
Audio #1
ID : 1
Format : MPEG Audio
Format version : Version 1
Format profile : Layer 3
Mode : Joint stereo
Mode extension : MS Stereo
Codec ID : 55
Codec ID/Hint : MP3
Duration : 42mn 1s
Bit rate mode : Constant
Bit rate : 128 Kbps
Channel(s) : 2 channels
Sampling rate : 48.0 KHz
Compression mode : Lossy
Stream size : 38.5 MiB (10%)
Alignment : Aligned on interleaves
Interleave, duration : 42 ms (1.00 video frame)
Interleave, preload duration : 504 ms
Title : Rus
Writing library : LAME3.98
Audio #2
ID : 2
Format : MPEG Audio
Format version : Version 1
Format profile : Layer 3
Mode : Joint stereo
Mode extension : MS Stereo
Codec ID : 55
Codec ID/Hint : MP3
Duration : 42mn 1s
Bit rate mode : Constant
Bit rate : 128 Kbps
Channel(s) : 2 channels
Sampling rate : 48.0 KHz
Compression mode : Lossy
Stream size : 38.5 MiB (10%)
Alignment : Aligned on interleaves
Interleave, duration : 42 ms (1.00 video frame)
Interleave, preload duration : 504 ms
Title : Eng

Постеры

Соцсети

 

Статистика

Автор: Stepan
Добавлен: 18 сен 2016, 23:56
Размер: 4.92 ГБ
Размер: 5 282 328 576 байт
Сидеров: 22
Личеров: 7
Скачали: 0
Здоровье: 100%
Раздающих: 100%
Статус:
Скорость скачивания: 0 байт/сек
Скорость раздачи: 0 байт/сек
Последний сидер: 3 дня 14 часов 15 минут 31 секунду назад
Последний личер: 3 дня 14 часов 15 минут 31 секунду назад
Приватный: Нет (DHT включён)
Кулинария Скачать торрент
Скачать торрент
[ Размер 25.41 КБ / Просмотров 0 ]

Поделиться



Вернуться в Кулинария