Сообщение

Кастрюля в ухе, или безумный Балаханов (90 выпусков) [2013, Кулинарное шоу, WEB-DL, 720p, RUS] (Видеоурок)

Сообщение Stepan » 18 сен 2016, 23:57

Кастрюля в ухе, или безумный Балаханов

Год выпуска: 2012-2013
Страна: Россия
Тематика: Кулинария
Тип раздаваемого материала: Видеоурок
Продолжительность: 35-60 минут на выпуск
Перевод: Не требуется

Описание: Этот гений кулинарного пижонства и эстетики «не для всех»
творит на кухне невообразимое. Он использует пинцеты, пипетки, суперострые ножи
и даже сварочный аппарат. Каждая программа — тест на выживание его компаньона,
полного лузера на кухне, Дмитрия.
Приготовьте ваши салфетки — возможно неконтролируемое выделение слюны.
И будьте уверены — Балаханов раздвинет стены вашей кухни.

Качество: WEB-DL
Формат: MP4
Видео кодек: AVC
Аудио кодек: AAC
Видео: 1280x720 25.00fps, ~2100 Kbit/sec
Аудио: Russian: AAC, 192 kb/s (2 ch)
Ананас, запечённый в соли
Артишоки с витками морского языка
Ассорти из сливочного масла, варенье и морс
Баранина по-риохски
Бланкеты из языка с травами
Блинчики Сюзет с проваренными в ликере кусочками фруктов
Буйабес с апельсинами и томатами
Говядина в красном вине и соте из овощей
Говяжьи хвосты, тушенные в розовом вине
Гребешки, обжаренные в масле
Груша, запечённая в тесте
Гурьевская каша с орехами, фруктами и изюмом
Густой фасолевый суп из говядины и телячьих хвостов
Десерт «Павлова»
Жиго с белыми грибами
Запечённые виноградные улитки
Индейка «Тетраццини»
Клубнично-лимонный тарт
Кордон блю с картофелем Пайль
Креветки в кокосовом молоке
Креветки, маринованные с ванилью
Крем-брюле с вареньем
Кролик с тамариндом и манго
Лазанья
Лосось, обернутый беконом с шалфеем, с картофельным гратеном
Медальоны из свинины с имбирем
Мидии «Бушо» в белом вине
Морские гребешки в кольце из рататуя
Мясной салат и картофельные крокеты
Окунь под карамельной корочкой
Омар в овощном рагу
Отбивные бараньи котлетки в кляре
Паве из говядины
Паста Фрутти ди Маре & Паста аль Помодоро
Паэлья с морепродуктами
Перепел, начиненный телячьей печенью
«Птички» из телятины с пюре из сельдерея
Рагу из мидий с пряными томатами и мидии, запечённые под сыром моцарелла
Речная форель, запеченная с двумя видами пюре
Ризотто с морепродуктами и белыми грибами
Рождественская курица со спаржей
Рыбная лазанья
Салат Вальдорф и лимон Фуре
Салат из виноградных улиток и тыквы, обжаренной в кунжутном масле
Салат из гребешков
Салат из индейки
Салат из копчёного лосося
Салат из копчёной утиной грудки
Салат оливье
Салат с куриной печенью и желудочками
Салат с омаром
Салат Цезарь
Свиная вырезка с овощами
Свиная корейка с тушеной капустой
Севиче из креветок и авокадо
Сибас с соусом «Белое вино»
Стейк из баклажана с соусом с кусочками овощей
Стейк из оленины
Стейк из сёмги
Стейк из фуагра
Стерлядь, фаршированная овощами и шампиньонами
Судак Орли с соусом Тартар
Суп из авокадо с конкильони, фаршированными шпинатом
Суп из морских гребешков с шампанским
Суп из тыквы с ананасом
Суп карри из тунца с кускусом и фенхелем
Суп с мясом раков
Суп-крем из цветной капусты
Суп-крем из свежих грибов
Суп-крем из спаржи с палтусом
Сыр «ля Вьерж»
Сэндвич с курицей-гриль, беконом и яйцом
Тартар из лосося и говядины
Том ям кунг
Три жюльена
Устрицы
Утиная грудка в соусе магре
Фахитас
Филе говядины, маринованное с имбирём
Филе Осетрины «Марешаль» с Лимонным маслом
Филе осетрины со спаржей и соусом из креветок
Филе судака на подушке из овощей
Филе цыплёнка с фруктами гриль
Финская уха
Фондю
Фондю из шоколада с лаймом и джином
Форель Д'Артуа с яйцом Пашот
Фрикасе из кролика в белом вине
Фрикасе из курицы с томатами черри
Цыпленок, маринованный в сальсе с овощами
General
General
Format : MPEG-4
Format profile : Base Media / Version 2
Codec ID : mp42
File size : 560 MiB
Duration : 34mn 45s
Overall bit rate mode : Variable
Overall bit rate : 2 253 Kbps
Encoded date : UTC 2013-02-17 16:43:41
Tagged date : UTC 2013-02-17 16:43:41
gsst : 0
gstd : 2085151
gssd : B6DC28944HM1409087359453819
gshh : r1---sn-xguxaxjvh-2x1e.googlevideo.com

Video
ID : 1
Format : AVC
Format/Info : Advanced Video Codec
Format profile : High@L3.1
Format settings, CABAC : Yes
Format settings, ReFrames : 1 frame
Format settings, GOP : M=1, N=60
Codec ID : avc1
Codec ID/Info : Advanced Video Coding
Duration : 34mn 45s
Bit rate : 2 058 Kbps
Maximum bit rate : 4 496 Kbps
Width : 1 280 pixels
Height : 720 pixels
Display aspect ratio : 16:9
Frame rate mode : Constant
Frame rate : 25.000 fps
Color space : YUV
Chroma subsampling : 4:2:0
Bit depth : 8 bits
Scan type : Progressive
Bits/(Pixel*Frame) : 0.089
Stream size : 512 MiB (91%)
Tagged date : UTC 2013-02-17 16:45:04

Audio
ID : 2
Format : AAC
Format/Info : Advanced Audio Codec
Format profile : LC
Codec ID : 40
Duration : 34mn 45s
Bit rate mode : Variable
Bit rate : 192 Kbps
Maximum bit rate : 203 Kbps
Channel(s) : 2 channels
Channel positions : Front: L R
Sampling rate : 44.1 KHz
Compression mode : Lossy
Stream size : 47.7 MiB (9%)
Title : IsoMedia File Produced by Google, 5-11-2011
Encoded date : UTC 2013-02-17 16:44:37
Tagged date : UTC 2013-02-17 16:45:04

Постеры

Соцсети

 

Статистика

Автор: Stepan
Добавлен: 18 сен 2016, 23:57
Размер: 67.55 ГБ
Размер: 72 527 627 259 байт
Сидеров: 3
Личеров: 1
Скачали: 0
Здоровье: 100%
Раздающих: 100%
Статус:
Скорость скачивания: 0 байт/сек
Скорость раздачи: 0 байт/сек
Последний сидер: 1 месяц 10 дней 9 часов 28 минут 54 секунды назад
Последний личер: 1 месяц 10 дней 9 часов 28 минут 54 секунды назад
Приватный: Нет (DHT включён)
Кулинария Скачать торрент
Скачать торрент
[ Размер 178.17 КБ / Просмотров 0 ]

Поделиться



Вернуться в Кулинария