Сообщение

Готовьте вместе с Гордоном Рамзи. 1 сезон / Gordon Ramsay: Cookalong Live / 7 Выпуска из 7 + 1[2008, ТВ-шоу, кулинария, SATRip, RUS] (Видеоурок)

Сообщение Stepan » 18 сен 2016, 23:57

Готовьте вместе с Гордоном Рамзи. 1 сезон / Gordon Ramsay: Cookalong Live / 7 Выпуска из 7 + 1

Страна: США
Тематика: ТВ-шоу, кулинария
Тип раздаваемого материала: Видеоурок
Продолжительность: ~ 00:50:00
Год выпуска: 2008

Язык: Русский
Перевод: Профессиональный (двухголосый)

Описание: Знаменитый шеф-повар и ресторатор Гордон Рамзи предстанет в качестве учителя. Он проведет мастер-класс американцам из разных уголков штата и научит их готовить обед из трех блюд за один час. Не пропустите самый большой мастер-класс в истории на телеканале.

Релиз:
Tarjaa

Качество: SATRip
Формат: AVI
Видео кодек: XviD
Аудио кодек: MP3
Видео: Xvid 704x400 25.00fps ~ 1600 Кбит/с
Аудио: MPEG Audio Layer 3 48000Hz stereo 128kbps [Stream 01]

отчёт MediaInfo:
General
Complete name : Gotovim.vmesti.s.G.Ramsi_Tarjaa\Gotovim.vmesti.s.G.Ramsi.V.08_Tarjaa.avi
Format : AVI
Format/Info : Audio Video Interleave
File size : 594 MiB
Duration : 47mn 49s
Overall bit rate : 1 738 Kbps
Writing application : VirtualDubMod 1.5.10.3 | www.virtualdub-fr.org || (build 2550/release)
Writing library : VirtualDubMod build 2550/release

Video
ID : 0
Format : MPEG-4 Visual
Format profile : Advanced Simple@L5
Format settings, BVOP : 1
Format settings, QPel : No
Format settings, GMC : No warppoints
Format settings, Matrix : Default (H.263)
Codec ID : XVID
Codec ID/Hint : XviD
Duration : 47mn 49s
Bit rate : 1 600 Kbps
Width : 704 pixels
Height : 400 pixels
Display aspect ratio : 16:9
Frame rate : 25.000 fps
Color space : YUV
Chroma subsampling : 4:2:0
Bit depth : 8 bits
Scan type : Progressive
Compression mode : Lossy
Bits/(Pixel*Frame) : 0.227
Stream size : 547 MiB (92%)
Writing library : XviD 1.2.1 (UTC 2008-12-04)

Audio
ID : 1
Format : MPEG Audio
Format version : Version 1
Format profile : Layer 3
Codec ID : 55
Codec ID/Hint : MP3
Duration : 47mn 49s
Bit rate mode : Constant
Bit rate : 128 Kbps
Channel(s) : 2 channels
Sampling rate : 48.0 KHz
Compression mode : Lossy
Stream size : 43.8 MiB (7%)
Alignment : Aligned on interleaves
Interleave, duration : 40 ms (1.00 video frame)
Interleave, preload duration : 504 ms
Writing library : LAME3.98r
Encoding settings : -m s -V 4 -q 2 -lowpass 17 -b 128
Добавлены 7-8 выпуски
перезалейте торрент

Постеры

Соцсети

 

Статистика

Автор: Stepan
Добавлен: 18 сен 2016, 23:57
Размер: 4.73 ГБ
Размер: 5 075 068 928 байт
Сидеров: 9
Личеров: 2
Скачали: 0
Здоровье: 100%
Раздающих: 100%
Статус:
Скорость скачивания: 0 байт/сек
Скорость раздачи: 0 байт/сек
Последний сидер: 1 месяц 14 дней 14 часов 44 минуты 23 секунды назад
Последний личер: 1 месяц 14 дней 14 часов 44 минуты 23 секунды назад
Приватный: Нет (DHT включён)
Кулинария Скачать торрент
Скачать торрент
[ Размер 24.63 КБ / Просмотров 0 ]

Поделиться



  • Похожие торренты
    Ответы
    Просмотры
    Последнее сообщение

Вернуться в Кулинария