Адская Кухня 11 / Hell's Kitchen 11 / Серии: 1-22 из 22 [2013, Кулинария, PDTVRip] VO (ViruseProject)

Рецепты салатов, закусок, мясных блюд, горячих напитков и сладких блюд
Торрент Сидеров Личеров Размер
torrent_4604672.torrent
27 10 9.93 ГБ
Аватара пользователя
Stepan
Администратор
Сообщения: 52267
Зарегистрирован: 05 ноя 2011, 20:36

Адская Кухня 11 / Hell's Kitchen 11 / Серии: 1-22 из 22 [2013, Кулинария, PDTVRip] VO (ViruseProject)

Сообщение Stepan » 18 сен 2016, 23:58

Адская Кухня / Hell's Kitchen (11 сезон)

Страна: США
Тематика: Кулинария
Тип раздаваемого материала: Реалити-шоу
Продолжительность: 00:42:00
Год выпуска: 2013

Язык: Русский
Перевод: Одноголосый, закадровый ViruseProject

Описание: Hell’s Kitchen — известное кулинарное реалити-шоу Гордона Рамзи,
идущее на американском канале Fox начиная с 2005 года. Несмотря на кулинарную ориентацию шоу,
оно отличается высоким «накалом страстей» и существенной драматизацией сюжета.




Релиз:
Над релизом трудились:
Озвучка: Kenum (Владислав Данилов)
Перевод: Нотабеноид (1-18), Татьяна Масаковская (19-22)
Сведение звука, подготовка видео: viruse (Виталий Емельянов)
Озвучено при поддержке SEASONVAR
смотреть СЕМПЛ озвучки на youtube
скачать СЕМПЛ с multi-up

Качество: PDTVRip
Формат: AVI
Видео кодек: XviD
Аудио кодек: МР3
Видео: 720x400 (1.80:1), 23.976 fps, XviD build 50 ~1300 kbps avg, 0.19 bit/pixel
Аудио: 48 kHz, MPEG Layer 3, 2 ch, ~192.00 kbps avg
D:\ОЗВУЧКА\ТЕЛЕПЕРЕДАЧИ\Hells.Kitchen.US.S11.ViruseProject\Hells.Kitchen.US.S11.ViruseProject\Hells.Kitchen.US.S11E03.ViruseProject.avi
General
Complete name : D:\ОЗВУЧКА\ТЕЛЕПЕРЕДАЧИ\Hells.Kitchen.US.S11.ViruseProject\Hells.Kitchen.US.S11.ViruseProject\Hells.Kitchen.US.S11E03.ViruseProject.avi
Format : AVI
Format/Info : Audio Video Interleave
File size : 465 MiB
Duration : 43mn 15s
Overall bit rate : 1 502 Kbps
Writing application : VirtualDubMod 1.5.10.2 (build 2540/release)
Writing library : VirtualDubMod build 2540/release
Video #0
ID : 0
Format : MPEG-4 Visual
Format profile : Advanced Simple@L5
Format settings, BVOP : 1
Format settings, QPel : No
Format settings, GMC : No warppoints
Format settings, Matrix : Default (MPEG)
Codec ID : XVID
Codec ID/Hint : XviD
Duration : 43mn 15s
Bit rate : 1 301 Kbps
Width : 720 pixels
Height : 400 pixels
Display aspect ratio : 16:9
Frame rate : 23.976 fps
Color space : YUV
Chroma subsampling : 4:2:0
Bit depth : 8 bits
Scan type : Progressive
Compression mode : Lossy
Bits/(Pixel*Frame) : 0.188
Stream size : 402 MiB (87%)
Writing library : XviD 1.2.1 (UTC 2008-12-04)
Audio #1
ID : 1
Format : MPEG Audio
Format version : Version 1
Format profile : Layer 3
Mode : Joint stereo
Mode extension : MS Stereo
Codec ID : 55
Codec ID/Hint : MP3
Duration : 43mn 14s
Bit rate mode : Constant
Bit rate : 192 Kbps
Channel(s) : 2 channels
Sampling rate : 48.0 KHz
Compression mode : Lossy
Stream size : 59.4 MiB (13%)
Alignment : Split accross interleaves
Interleave, duration : 42 ms (1.00 video frame)
Interleave, preload duration : 500 ms
У вас нет необходимых прав для просмотра вложений в этом сообщении.