Сообщение

Адская Кухня 12 / Hell's Kitchen 12 / Серии: 1-20 из 20 [2013, Кулинария, PDTVRip] VO (ViruseProject)

Сообщение Stepan » 18 сен 2016, 23:58

Адская Кухня 12 / Hell's Kitchen 12

Год выпуска: 2013
Страна: США
Тематика: Кулинария
Тип раздаваемого материала: Реалити-шоу
Продолжительность: 00:44:00

Язык: Русский
Перевод: Одноголосый, закадровый ViruseProject

Описание: Hell’s Kitchen — известное кулинарное реалити-шоу Гордона Рамзи,
идущее на американском канале Fox начиная с 2005 года. Несмотря на кулинарную ориентацию шоу,
оно отличается высоким «накалом страстей» и существенной драматизацией сюжета.




Закадровое озвучание: Владислав Данилов
Перевод на русский: Татьяна Масаковская
Сведение звука, подготовка видео: viruse (Виталий Емельянов)
Озвучено при поддержке SEASONVAR
смотреть СЕМПЛ озвучки на youtube
скачать СЕМПЛ с multi-up

Качество: PDTVRip
Формат: AVI
Видео кодек: XviD
Аудио кодек: МР3
Видео: 720x400 (1.80:1), 23.975 fps, XviD build 50 ~1293 kbps avg, 0.19 bit/pixel
Аудио: 48 kHz, MPEG Layer 3, 2 ch, ~192.00 kbps avg
D:\ОЗВУЧКА\ТЕЛЕПЕРЕДАЧИ\Hells.Kitchen.US.S12.ViruseProject\Hells.Kitchen.US.S12.ViruseProject\Hells.Kitchen.US.S12E01.ViruseProject.avi
General
Complete name : D:\ОЗВУЧКА\ТЕЛЕПЕРЕДАЧИ\Hells.Kitchen.US.S12.ViruseProject\Hells.Kitchen.US.S12.ViruseProject\Hells.Kitchen.US.S12E01.ViruseProject.avi
Format : AVI
Format/Info : Audio Video Interleave
File size : 462 MiB
Duration : 43mn 13s
Overall bit rate : 1 495 Kbps
Writing application : VirtualDubMod 1.5.10.2 (build 2540/release)
Writing library : VirtualDubMod build 2540/release
Video #0
ID : 0
Format : MPEG-4 Visual
Format profile : Advanced Simple@L5
Format settings, BVOP : 1
Format settings, QPel : No
Format settings, GMC : No warppoints
Format settings, Matrix : Default (MPEG)
Codec ID : XVID
Codec ID/Hint : XviD
Duration : 43mn 13s
Bit rate : 1 293 Kbps
Width : 720 pixels
Height : 400 pixels
Display aspect ratio : 16:9
Frame rate : 23.976 fps
Color space : YUV
Chroma subsampling : 4:2:0
Bit depth : 8 bits
Scan type : Progressive
Compression mode : Lossy
Bits/(Pixel*Frame) : 0.187
Stream size : 400 MiB (87%)
Writing library : XviD 1.2.1 (UTC 2008-12-04)
Audio #1
ID : 1
Format : MPEG Audio
Format version : Version 1
Format profile : Layer 3
Codec ID : 55
Codec ID/Hint : MP3
Duration : 43mn 12s
Bit rate mode : Constant
Bit rate : 192 Kbps
Channel count : 2 channels
Sampling rate : 48.0 KHz
Compression mode : Lossy
Stream size : 59.3 MiB (13%)
Alignment : Split accross interleaves
Interleave, duration : 42 ms (1.00 video frame)
Interleave, preload duration : 500 ms
Внимание! Раздача ведётся путём добавления новых серий; при каждом добавлении создётся новый торрент. Чтобы начать докачку новой серии, пользователям необходимо сделать следующее:
Остановить скачивание.
Удалить старый торрент у себя из клиента (старые серии удалять не надо).
Скачать новый торрент и запустить его у себя в клиенте вместо старого, при этом указать клиенту путь в старую папку куда и должно происходить скачивание новых серий.
Ваш клиент при этом должен произвести хеширование (проверку) старой папки (если не производит сам - помогите ему сделать это), и будет докачивать только те серии которых у вас ещё нет. Старые серии при этом не удаляются, а продолжают раздаваться!
Eсли вы уже удалили старые серии, то предотвратить повторную закачку старых серий можно, отжав галочку в соответсвующих местах при запуске нового торрента. По возможности, желательно не удалять старые серии как можно дольше чтобы релизёр не столько продолжал раздавать старые серии, а смог сконцентрироваться на новых.
ВНИМАНИЕ! Добавлена 20-я серия!

Постеры

Соцсети

 

Статистика

Автор: Stepan
Добавлен: 18 сен 2016, 23:58
Размер: 9.02 ГБ
Размер: 9 689 225 216 байт
Сидеров: 18
Личеров: 5
Скачали: 0
Здоровье: 100%
Раздающих: 100%
Статус:
Скорость скачивания: 0 байт/сек
Скорость раздачи: 0 байт/сек
Последний сидер: 2 месяца 12 дней 13 часов 58 минут 3 секунды назад
Последний личер: 2 месяца 12 дней 13 часов 58 минут 3 секунды назад
Приватный: Нет (DHT включён)
Кулинария Скачать торрент
Скачать торрент
[ Размер 24.72 КБ / Просмотров 0 ]

Поделиться



Вернуться в Кулинария