Сообщение

Быстрые рецепты (1-50 выпуск) [2011-2013, ТВ-шоу, кулинария, SATRip, RUS] (Видеоурок)

Сообщение Stepan » 18 сен 2016, 23:59

Быстрые рецепты (1-50 выпуск)

Страна: Россия
Тематика: ТВ-шоу, кулинария
Тип раздаваемого материала: Видеоурок
Продолжительность: 12 x ~ 00:25:48, 38 x ~ 00:12:48
Год выпуска: 2011-2013

Язык: Русский
Перевод: Не требуется

Описание: Быстрые рецепты не только позволяют сэкономить время, но и поесть качественно и вкусно приготовленные блюда. Почти все составляющие данных блюд – обычные продукты и не требуют особых навыков в приготовлении.

Доп. информация:
01. Шоколадно-ореховый торт, апельсины в меду, клубника со взбитыми сливками, чай с травами
02. Рулеты из трески с томатами, пикантные ромашки
03. Крупеник с творогом, ананасовые шарики, фаршированные яблоки, коктейль "Утренняя свежесть"
04. Омлет с тунцом, тосты с тунцом и бананом, тосты с грушей и сыром
05. Баклажаны с начинкой из брынзы и томатов, фаршированный картофель, овощной салат
06. Колбасные "Гнездышки", фаршированный багет, фаршированные помидоры, лимонад
07. Макароны запеченные с овощами и грибами, кулечки из листьев салата, закуска «Алые паруса»
08. Запеченная свинина, салат с фасолью
09. Зеленые щи с грибами
10. Фаршированные огурцы, мелидзама
11. Темпура
12. Пад-тай, бутерброды с крабами по-тайски
13. Пица, салат
14. Бисквитный десерт, среднеземноморский бутерброд, салат с креветками
15. Окрошка, суп из шпината, свекольник
16. Кефирный соус, греческий соус, томатный соус, сырный соус
17. Кофейный коктейль, фруктово-медовый коктейль, авокадовый коктейль, мастер-класс
18. Хрустящий пошетт с ягодным соусом
19. Велиесс салат с куриной грудкой
20. Гнезда из фарша, теплый салат Рататуй
21. Котлеты из фарша с овощами, компот
22. Салат "Голый помидор", салат "Зеленый творог"
23. Французский салат из шампиньонов, домашний йогурт
24. Рыба "Русский шик", соус Бешамель, рис с овощами
25. Куриные котлеты "А-Ля-Кок", гарнир "Капустный трюк"
26. Теплый салат "Бибидук", домашний лимонад
27. Варенье "Яблочный шедевр", чай с травами
28. Макароны "Болоньезе"
29. Новогодняя баница
30. Родопский потатник, мясной сач, каверма
31. Жульен из морепродуктов
32. Салат парижский
33. Рулетики из семги
34. Запеченные яблоки, русский кисель
35. Курица по-калифорнийски
36. Хворост
37. Вегетарианский шашлык
38. Картофельная котлета с грибами
39. Рыбная запеканка
40. Картофельный гратан
41. Сырники
42. Яичница в сердце
43. Швейцарский омлет
44. Каша молочная, березовый сок с киви
45. Судак на спарже под соусом "Сальса"
46. Рыба под крапивным одеялом
47. Говяжья вырезка по-французски с овощами
48. Зеленый салат в сырной корзиночке с креветками
49. Зеленый салат с семгой, апельсином и французской заправкой, апельсиновая вода с мятой
50. Суп из крапивы
Format : AVI
Format/Info : Audio Video Interleave
File size : 150 MiB
Duration : 12mn 47s
Overall bit rate : 1 638 Kbps
Writing application : VirtualDubMod 1.5.10.3 | www.virtualdub-fr.org || (build 2550/release)
Writing library : VirtualDubMod build 2550/release

Video
ID : 0
Format : MPEG-4 Visual
Format profile : Advanced Simple@L5
Format settings, BVOP : 1
Format settings, QPel : No
Format settings, GMC : No warppoints
Format settings, Matrix : Default (H.263)
Codec ID : XVID
Codec ID/Hint : XviD
Duration : 12mn 47s
Bit rate : 1 500 Kbps
Width : 704 pixels
Height : 528 pixels
Display aspect ratio : 4:3
Frame rate : 25.000 fps
Color space : YUV
Chroma subsampling : 4:2:0
Bit depth : 8 bits
Scan type : Progressive
Compression mode : Lossy
Bits/(Pixel*Frame) : 0.161
Stream size : 137 MiB (92%)
Writing library : XviD 1.2.1 (UTC 2008-12-04)

Audio
ID : 1
Format : MPEG Audio
Format version : Version 1
Format profile : Layer 3
Codec ID : 55
Codec ID/Hint : MP3
Duration : 12mn 47s
Bit rate mode : Constant
Bit rate : 128 Kbps
Channel(s) : 2 channels
Sampling rate : 48.0 KHz
Compression mode : Lossy
Stream size : 11.7 MiB (8%)
Alignment : Aligned on interleaves
Interleave, duration : 40 ms (1.00 video frame)
Interleave, preload duration : 504 ms
Writing library : LAME3.98r
Encoding settings : -m s -V 4 -q 2 -lowpass 17 -b 128
Качество: SATRip
Формат: AVI
Видео кодек: XviD
Аудио кодек: MP3
Видео: XviD, 704x528, 4:3, 1500 kbps, 25 fps
Аудио: MP3, 128 kbps, 48.0 KHz, 2 ch

Постеры

Соцсети

 

Статистика

Автор: Stepan
Добавлен: 18 сен 2016, 23:59
Размер: 9.1 ГБ
Размер: 9 769 388 032 байт
Сидеров: 2
Личеров: 9
Скачали: 0
Здоровье: 22%
Раздающих: 100%
Статус:
Скорость скачивания: 0 байт/сек
Скорость раздачи: 0 байт/сек
Последний сидер: 1 месяц 2 дня 22 часа 9 минут 3 секунды назад
Последний личер: 1 месяц 2 дня 22 часа 9 минут 3 секунды назад
Приватный: Нет (DHT включён)
Кулинария Скачать торрент
Скачать торрент
[ Размер 26.9 КБ / Просмотров 1 ]

Поделиться



  • Похожие торренты
    Ответы
    Просмотры
    Последнее сообщение

Вернуться в Кулинария