Сообщение

Экономные блюда Джейми / Jamie's Money Saving Meals / Сезон: 2 / Серии: 1-6 (6) [2014, Кулинарное шоу, HDTVRip 720p, RUS/ENG] VO (AlexFilm)

Сообщение Stepan » 19 сен 2016, 00:00

Экономные блюда Джейми / Jamie's Money Saving Meals
2 сезон, 1-6 серии

Страна: Великобритания, Channel 4
Тематика: Кулинарное шоу
Тип раздаваемого материала: Видеоурок
Продолжительность: ~ 00:20:00
Год выпуска: 2014

Язык: Русский + Английский
Перевод: Профессиональный одноголосый закадровый (AlexFilm)
Субтитры: Нет

Описание: Джейми Оливер продолжает свою просветительскую деятельность, цель которой - приучить людей питаться вкусно и полезно, при этом не тратя на еду много денег. Харизматичный повар научит зрителей делать правильный выбор в магазине, а также рационально распоряжаться своим временем и бюджетом.
Релиз:
Перевод: Константин Кривоногов
Монтаж и сведение звука: Владимир Курдов
Озвучание: Владимир Курдов

Качество: HDTVRip
Формат: MKV
Видео кодек: H.264
Аудио кодек: AC3
Видео: MPEG4 Video (H264) 1280x720 25fps ~2 330 Kbps
Аудио Rus: 48 kHz, AC3 Dolby Digital, 2/0 (L,R) ch, ~192.00 kbps
Аудио Eng: 48 kHz, AC3 Dolby Digital, 2/0 (L,R) ch, ~192.00 kbps
Format : Matroska
Format version : Version 4 / Version 2
File size : 471 MiB
Duration : 23mn 45s
Overall bit rate : 2 769 Kbps
Encoded date : UTC 2014-08-16 16:39:15
Writing application : mkvmerge v7.1.0 ('Good Love') 64bit built on Jul 27 2014 13:06:55
Writing library : libebml v1.3.0 + libmatroska v1.4.1

Video
ID : 1
Format : AVC
Format/Info : Advanced Video Codec
Format profile : High@L4.1
Format settings, CABAC : Yes
Format settings, ReFrames : 5 frames
Codec ID : V_MPEG4/ISO/AVC
Duration : 23mn 45s
Bit rate : 2 330 Kbps
Width : 1 280 pixels
Height : 720 pixels
Display aspect ratio : 16:9
Frame rate mode : Constant
Frame rate : 25.000 fps
Color space : YUV
Chroma subsampling : 4:2:0
Bit depth : 8 bits
Scan type : Progressive
Bits/(Pixel*Frame) : 0.101
Stream size : 396 MiB (84%)
Writing library : x264 core 142 r2431 ac76440
Default : Yes
Forced : No
DURATION : 00:23:45.800000000
Matrix coefficients : BT.709

Audio #1
ID : 2
Format : AC-3
Format/Info : Audio Coding 3
Mode extension : CM (complete main)
Format settings, Endianness : Big
Codec ID : A_AC3
Duration : 23mn 45s
Bit rate mode : Constant
Bit rate : 192 Kbps
Channel(s) : 2 channels
Channel positions : Front: L R
Sampling rate : 48.0 KHz
Bit depth : 16 bits
Compression mode : Lossy
Stream size : 32.6 MiB (7%)
Title : AlexFilm
Language : Russian
Default : Yes
Forced : No

Audio #2
ID : 3
Format : AC-3
Format/Info : Audio Coding 3
Mode extension : CM (complete main)
Format settings, Endianness : Big
Codec ID : A_AC3
Duration : 23mn 45s
Bit rate mode : Constant
Bit rate : 192 Kbps
Channel(s) : 2 channels
Channel positions : Front: L R
Sampling rate : 48.0 KHz
Bit depth : 16 bits
Compression mode : Lossy
Stream size : 32.6 MiB (7%)
Language : English
Default : No
Forced : No

Text
ID : 4
Format : UTF-8
Codec ID : S_TEXT/UTF8
Codec ID/Info : UTF-8 Plain Text
Default : Yes
Forced : No
Внимание! Раздача ведётся путём добавления новых серий; при каждом добавлении создаётся новый торрент. Чтобы начать докачку новой серии, пользователям необходимо сделать следующее:
(1) остановить скачивание,
(2) удалить старый торрент у себя из клиента (старые серии удалять не надо),
(3) скачать новый торрент и запустить его у себя в клиенте вместо старого, при этом указать клиенту путь в старую папку куда и должно происходить скачивание новых серий.
Ваш клиент при этом должен произвести хеширование (проверку) старой папки (если не производит сам - помогите ему сделать это), и будет докачивать только те серии которых у вас ещё нет. Старые серии при этом не удаляются, а продолжают раздаваться!
Eсли вы уже удалили старые серии, то предотвратить повторную закачку старых серий можно, отжав галочку в соответствующих местах при запуске нового торрента. По возможности, желательно не удалять старые серии как можно дольше, чтобы релизёр не столько продолжал раздавать старые серии, а смог сконцентрироваться на новых.

Постеры

Соцсети

 

Статистика

Автор: Stepan
Добавлен: 19 сен 2016, 00:00
Размер: 2.75 ГБ
Размер: 2 957 498 222 байт
Сидеров: 15
Личеров: 6
Скачали: 0
Здоровье: 100%
Раздающих: 100%
Статус:
Скорость скачивания: 0 байт/сек
Скорость раздачи: 0 байт/сек
Последний сидер: 3 дня 9 часов 8 минут 39 секунд назад
Последний личер: 3 дня 9 часов 8 минут 39 секунд назад
Приватный: Нет (DHT включён)
Кулинария Скачать торрент
Скачать торрент
[ Размер 14.86 КБ / Просмотров 3 ]

Поделиться



Вернуться в Кулинария