Джейми Оливер: Гастрономическая революция в прямом эфире из Сиднейского оперного театра / Jamie's Food Revolution Live [

Рецепты салатов, закусок, мясных блюд, горячих напитков и сладких блюд
Торрент Сидеров Личеров Размер
torrent_5149863.torrent
9 2 2.36 ГБ
Аватара пользователя
Stepan
Администратор
Сообщения: 52270
Зарегистрирован: 05 ноя 2011, 20:36

Джейми Оливер: Гастрономическая революция в прямом эфире из Сиднейского оперного театра / Jamie's Food Revolution Live [

Сообщение Stepan » 19 сен 2016, 00:00

Джейми Оливер: Гастрономическая революция в прямом эфире из Сиднейского оперного театра / Jamie's Food Revolution Live

Страна: Австралийский Союз
Тематика: Кулинарное шоу
Тип раздаваемого материала: Кулинарное шоу
Продолжительность: 00:43:22
Год выпуска: 2015

Язык: Русский
Перевод: Профессиональный (многоголосый, закадровый)

Язык субтитров: нет
Описание: Джейми Оливер делится своей любовью к свежим продуктам и приготовлению еды, а также своим заразительным восторгом к Сиднейскому оперному театру перед аудиторией, насчитывающей более 2000 человек. В своём весёлом семейном живом шоу Джейми попросит каждого присоединиться к нему в его "пищевой революции" и подписать петицию с требованием ввести в план обучения каждой страны обязательный курс по кулинарному образованию.

Качество: HDTV
Формат: TS
Видео кодек: AVC
Аудио кодек: MP2
Видео:AVC, 1920x1080 (16:9), 25.000 fps, 7 250 Kbps (0.140 bit/pixel)
Аудио: MP2, 48.0 KHz, 2 ch, 160 Kbps, CBR (Russian)
Аудио 2: MP2, 48.0 KHz, 2 ch, 160 Kbps, CBR (English)
Код:

Код: Выделить всё

General
ID                          : 1 (0x1)
Complete name               : E:\Jamie\Jamie's.Food.Revolution.Live.HDTV.ts
Format                      : MPEG-TS
File size                   : 2.36 GiB
Duration                    : 42mn 22s
Overall bit rate mode       : Variable
Overall bit rate            : 7 967 Kbps

Video
ID                          : 141 (0x8D)
Menu ID                     : 13002 (0x32CA)
Format                      : AVC
Format/Info                 : Advanced Video Codec
Format profile              : Main@L4
Format settings, CABAC      : Yes
Format settings, ReFrames   : 4 frames
Codec ID                    : 27
Duration                    : 42mn 22s
Bit rate                    : 7 250 Kbps
Width                       : 1 920 pixels
Height                      : 1 080 pixels
Display aspect ratio        : 16:9
Frame rate                  : 25.000 fps
Standard                    : Component
Color space                 : YUV
Chroma subsampling          : 4:2:0
Bit depth                   : 8 bits
Scan type                   : MBAFF
Scan type, store method     : Interleaved fields
Scan order                  : Top Field First
Bits/(Pixel*Frame)          : 0.140
Stream size                 : 2.15 GiB (91%)
Color range                 : Limited
Color primaries             : BT.709
Transfer characteristics    : BT.709
Matrix coefficients         : BT.709

Audio #1
ID                          : 144 (0x90)
Menu ID                     : 13002 (0x32CA)
Format                      : MPEG Audio
Format version              : Version 1
Format profile              : Layer 2
Mode                        : Joint stereo
Mode extension              : Intensity Stereo
Codec ID                    : 3
Duration                    : 42mn 22s
Bit rate mode               : Constant
Bit rate                    : 160 Kbps
Channel(s)                  : 2 channels
Sampling rate               : 48.0 KHz
Compression mode            : Lossy
Delay relative to video     : -80ms
Stream size                 : 48.5 MiB (2%)
Language                    : Russian

Audio #2
ID                          : 145 (0x91)
Menu ID                     : 13002 (0x32CA)
Format                      : MPEG Audio
Format version              : Version 1
Format profile              : Layer 2
Mode                        : Joint stereo
Codec ID                    : 3
Duration                    : 42mn 22s
Bit rate mode               : Constant
Bit rate                    : 160 Kbps
Channel(s)                  : 2 channels
Sampling rate               : 48.0 KHz
Compression mode            : Lossy
Delay relative to video     : -80ms
Stream size                 : 48.5 MiB (2%)
Language                    : English




У вас нет необходимых прав для просмотра вложений в этом сообщении.