Сообщение

Ешь и худей с Виктором Логиновым/ Выпуски 49-52 [2011, Кулинарное шоу, SATRip]

Сообщение Stepan » 19 сен 2016, 00:01

Ешь и худей с Виктором Логиновым / Выпуски 49-52 [2011, Кулинарное шоу, SATRip]
Год выпуска: 2011
Страна: Россия
Жанр: Кулинарное шоу
Ведущий Виктор Логинов
Продолжительность: ~23 минуты
Перевод: Не требуется
Русские субтитры: нет

Режиссер: ТНТ

-
Описание: Похудеть хотят все. Как – не знает никто. Каждый пытается найти свой вариант. Таблетки. Диеты. Спорт. Голодание. Всё это в лучшем случае не работает. В худшем - вредит здоровью. Неужели для того, чтобы оставаться в форме, надо так себя мучить? Неужели надо навсегда отказаться от шоколада? Все. Больше никакой борьбы с собой. Красота и здоровье требуют не жертв, а знания своего тела. И законов, по которым оно существует. Поэтому не диеты, а здоровое питание. Не лист салата, а любимая еда.


Качество: SATRip
Формат: AVI
Видео кодек: DivX
Аудио кодек: MP3
Видео #1: 720x400 (1.80:1), 25 fps, 1541 kbps avg, 0.21 bit/pixel, XviD
Видео #2: 720x400 (1.80:1), 25 fps, XviD build 50, 1392 kbps avg, 0.19 bit/pixel
Видео #3: 704x384 (1.83:1), 25 fps, DivX Codec 6.8.5/6.9.1, 1298 kbps avg, 0.19 bit/pixel
Аудио #1: 48 kHz, MPEG Layer 3, 1 ch, 128.00 kbps avg
Аудио #2: 48 kHz, MPEG Layer 3, 2 ch, 128.00 kbps avg
Аудио #3: 48 kHz, MPEG Layer 3, 1 ch, 128.00 kbps avg


Раздача ведется путем добавления новых серий.
23.07.11 Раздача обновлена. Добавлен 52 выпуск

1. Открыть торрент.
2. Снять галки с тех файлов торрента, которые мы не хотим закачивать. Оставляем только на нужных нам файлах (файле).
3. Нажать О.К.
Код:
Код: Выделить всё
Общее
Полное имя                       : J:\Все телевидение\Ешь и худей\Esh_i_hudei_49_by_fil-pawlov2010_[rutracker.org].avi
Формат                           : AVI
Формат/Информация                : Audio Video Interleave
Размер файла                     : 291 Мбайт
Продолжительность                : 24 м.
Общий поток                      : 1679 Кбит/сек
Программа кодирования            : VirtualDubModRus 1.5.10.2 (build 2542/release)
Библиотека кодирования           : VirtualDubMod build 2542/release

Видео
Идентификатор                    : 0
Формат                           : MPEG-4 Visual
Профиль формата                  : Simple@L1
Параметр BVOP формата            : Нет
Параметр QPel формата            : Нет
Параметр GMC формата             : Без точки перехода
Параметр матрицы формата         : Default (H.263)
Идентификатор кодека             : XVID
Идентификатор кодека/Подсказка   : XviD
Продолжительность                : 24 м.
Битрейт                          : 1541 Кбит/сек
Ширина                           : 720 пикс.
Высота                           : 400 пикс.
Соотношение сторон               : 16:9
Частота кадров                   : 25,000 кадр/сек
Цветовое пространство            : YUV
Подвыборка цветности             : 4:2:0
Битовая глубина                  : 8 бит
Тип развёртки                    : Прогрессивная
Метод сжатия                     : С потерями
Бит/(Пиксели*Кадры)              : 0.214
Размер потока                    : 267 Мбайт (92%)
Библиотека кодирования           : Lavc52.87.1

Аудио
Идентификатор                    : 1
Формат                           : MPEG Audio
Версия формата                   : Version 1
Профиль формата                  : Layer 3
Идентификатор кодека             : 55
Идентификатор кодека/Подсказка   : MP3
Продолжительность                : 24 м.
Вид битрейта                     : Постоянный
Битрейт                          : 128 Кбит/сек
Каналы                           : 1 канал
Частота                          : 48,0 КГц
Метод сжатия                     : С потерями
Размер потока                    : 22,2 Мбайт (8%)
Выравнивание                     : Разделение по промежуткам
Продолжительность промежутка     : 40  мс. (1,00 видеокадр)
Время предзагрузки промежутка    : 500 ms

Общее
Полное имя                       : J:\Все телевидение\Ешь и худей\Esh_i_hudei_50_by_fil-pawlov2010_[rutracker.org].avi
Формат                           : AVI
Формат/Информация                : Audio Video Interleave
Размер файла                     : 251 Мбайт
Продолжительность                : 22 м.
Общий поток                      : 1530 Кбит/сек
Библиотека кодирования           : VirtualDub build 32706/release

Видео
Идентификатор                    : 0
Формат                           : MPEG-4 Visual
Профиль формата                  : Advanced Simple@L5
Параметр BVOP формата            : 2
Параметр QPel формата            : Нет
Параметр GMC формата             : Без точки перехода
Параметр матрицы формата         : Default (MPEG)
Идентификатор кодека             : XVID
Идентификатор кодека/Подсказка   : XviD
Продолжительность                : 22 м.
Битрейт                          : 1392 Кбит/сек
Ширина                           : 720 пикс.
Высота                           : 400 пикс.
Соотношение сторон               : 16:9
Частота кадров                   : 25,000 кадр/сек
Цветовое пространство            : YUV
Подвыборка цветности             : 4:2:0
Битовая глубина                  : 8 бит
Тип развёртки                    : Прогрессивная
Метод сжатия                     : С потерями
Бит/(Пиксели*Кадры)              : 0.193
Размер потока                    : 229 Мбайт (91%)
Библиотека кодирования           : XviD 1.2.1 (UTC 2008-12-04)

Аудио
Идентификатор                    : 1
Формат                           : MPEG Audio
Версия формата                   : Version 1
Профиль формата                  : Layer 3
Режим                            : Joint stereo
Расширение режима                : MS Stereo
Идентификатор кодека             : 55
Идентификатор кодека/Подсказка   : MP3
Продолжительность                : 22 м.
Вид битрейта                     : Постоянный
Битрейт                          : 128 Кбит/сек
Каналы                           : 2 канала
Частота                          : 48,0 КГц
Метод сжатия                     : С потерями
Размер потока                    : 21,0 Мбайт (8%)
Выравнивание                     : Разделение по промежуткам
Продолжительность промежутка     : 40  мс. (1,00 видеокадр)
Время предзагрузки промежутка    : 500 ms

Общее
Полное имя                       : J:\Все телевидение\Ешь и худей\Esh_i_hudei_51_by_fil-pawlov2010_[rutracker.org].avi
Формат                           : AVI
Формат/Информация                : Audio Video Interleave
Размер файла                     : 236 Мбайт
Продолжительность                : 23 м.
Общий поток                      : 1436 Кбит/сек
Программа кодирования            : VirtualDubMod 1.5.10.2 (build 2540/release)
Библиотека кодирования           : VirtualDubMod build 2540/release

Видео
Идентификатор                    : 0
Формат                           : MPEG-4 Visual
Параметр BVOP формата            : 1
Параметр QPel формата            : Нет
Параметр GMC формата             : Без точки перехода
Параметр матрицы формата         : Default (H.263)
Режим смешивания                 : Сжатый битовый поток
Идентификатор кодека             : DX50
Идентификатор кодека/Подсказка   : DivX 5
Продолжительность                : 23 м.
Битрейт                          : 1299 Кбит/сек
Ширина                           : 704 пикс.
Высота                           : 384 пикс.
Соотношение сторон               : 16:9
Частота кадров                   : 25,000 кадр/сек
Цветовое пространство            : YUV
Подвыборка цветности             : 4:2:0
Битовая глубина                  : 8 бит
Тип развёртки                    : Прогрессивная
Метод сжатия                     : С потерями
Бит/(Пиксели*Кадры)              : 0.192
Размер потока                    : 214 Мбайт (90%)
Библиотека кодирования           : DivX 6.8.5 (UTC 2009-08-20)

Аудио
Идентификатор                    : 1
Формат                           : MPEG Audio
Версия формата                   : Version 1
Профиль формата                  : Layer 3
Идентификатор кодека             : 55
Идентификатор кодека/Подсказка   : MP3
Продолжительность                : 23 м.
Вид битрейта                     : Постоянный
Битрейт                          : 128 Кбит/сек
Каналы                           : 1 канал
Частота                          : 48,0 КГц
Метод сжатия                     : С потерями
Размер потока                    : 21,1 Мбайт (9%)
Выравнивание                     : Разделение по промежуткам
Продолжительность промежутка     : 40  мс. (1,00 видеокадр)
Время предзагрузки промежутка    : 500 ms
Библиотека кодирования           : LAME3.98.2

Выпуск 49. Участвует группа USB (Дюша Метелкин и Турбо). Эфир 02.07.11
Выпуск 50. Участвует Ольга Бузова. Эфир 09.07.11
Выпуск 51. Участвует Виктория Лопырева. Дата выхода в эфир 16.07.11

Постеры

Соцсети

 

Статистика

Автор: Stepan
Добавлен: 19 сен 2016, 00:01
Размер: 1.01 ГБ
Размер: 1 082 652 976 байт
Сидеров: 1
Личеров: 0
Скачали: 0
Здоровье: 100%
Раздающих: 100%
Статус:
Скорость скачивания: 0 байт/сек
Скорость раздачи: 0 байт/сек
Последний сидер: 2 месяца 10 дней 3 часа 41 минуту 11 секунд назад
Последний личер: Нет
Приватный: Нет (DHT включён)
Кулинария Скачать торрент
Скачать торрент
[ Размер 10.85 КБ / Просмотров 0 ]

Поделиться



Вернуться в Кулинария