Джейми Оливер: Супер еда / Jamie's Super Food [2015, Кулинарное шоу, HDTV, RUS/ENG]

Рецепты салатов, закусок, мясных блюд, горячих напитков и сладких блюд
Торрент Сидеров Личеров Размер
torrent_5234218.torrent
41 13 14.67 ГБ
Аватара пользователя
Stepan
Администратор
Сообщения: 52267
Зарегистрирован: 05 ноя 2011, 20:36

Джейми Оливер: Супер еда / Jamie's Super Food [2015, Кулинарное шоу, HDTV, RUS/ENG]

Сообщение Stepan » 19 сен 2016, 00:05

Джейми Оливер: Супер еда / Jamie's Super Food

Страна: Соединённое Королевство Великобритании и Северной Ирландии
Тематика: Кулинарное шоу
Тип раздаваемого материала: Видеоурок
Продолжительность: 00:44:00
Год выпуска: 2015

Язык: Русский + Английский
Перевод: Профессиональный (одноголосый)

Описание: Джейми Оливер: Супер еда — это новое увлекательное шоу, которое поможет вам обрести здоровье через правильное питание. Каждую неделю Джейми готовит дневной рацион, состоящий из вкуснейших блюд: идеально сбалансированные аппетитные порции, которые обеспечат вас всеми необходимыми элементами.

Качество: HDTV
Формат: TS
Видео кодек: H.264
Аудио кодек: MP2
Видео: MPEG4 Video (H264) 1920x1080 25fps [V: h264 main L4.0, yuv420p, 1920x1080]
Аудио: MPEG Audio 48000Hz stereo 160kbps [A: Russian [rus] (mp2, 48000 Hz, stereo, 160 kb/s)]
Аудио 2: MPEG Audio 48000Hz stereo 160kbps [A: English [eng] (mp2, 48000 Hz, stereo, 160 kb/s)]
Код:

Код: Выделить всё

General
ID                             : 1 (0x1)
Complete name                  : E:\Jamie\Jamie's super food HD\Jamie's .Super.Food.S01.E01.HDTV.ts
Format                         : MPEG-TS
File size                      : 2.45 GiB
Duration                       : 44mn 0s
Overall bit rate mode          : Variable
Overall bit rate               : 7 966 Kbps

Video
ID                             : 141 (0x8D)
Menu ID                        : 13002 (0x32CA)
Format                         : AVC
Format/Info                    : Advanced Video Codec
Format profile                 : Main@L4
Format settings, CABAC         : Yes
Format settings, ReFrames      : 4 frames
Codec ID                       : 27
Duration                       : 43mn 59s
Bit rate                       : 7 249 Kbps
Width                          : 1 920 pixels
Height                         : 1 080 pixels
Display aspect ratio           : 16:9
Frame rate                     : 25.000 fps
Standard                       : Component
Color space                    : YUV
Chroma subsampling             : 4:2:0
Bit depth                      : 8 bits
Scan type                      : MBAFF
Scan type, store method        : Interleaved fields
Scan order                     : Top Field First
Bits/(Pixel*Frame)             : 0.140
Stream size                    : 2.23 GiB (91%)
Color range                    : Limited
Color primaries                : BT.709
Transfer characteristics       : BT.709
Matrix coefficients            : BT.709

Audio #1
ID                             : 144 (0x90)
Menu ID                        : 13002 (0x32CA)
Format                         : MPEG Audio
Format version                 : Version 1
Format profile                 : Layer 2
Mode                           : Joint stereo
Codec ID                       : 3
Duration                       : 43mn 59s
Bit rate mode                  : Constant
Bit rate                       : 160 Kbps
Channel(s)                     : 2 channels
Sampling rate                  : 48.0 KHz
Compression mode               : Lossy
Delay relative to video        : -80ms
Stream size                    : 50.4 MiB (2%)
Language                       : Russian

Audio #2
ID                             : 145 (0x91)
Menu ID                        : 13002 (0x32CA)
Format                         : MPEG Audio
Format version                 : Version 1
Format profile                 : Layer 2
Mode                           : Joint stereo
Codec ID                       : 3
Duration                       : 44mn 0s
Bit rate mode                  : Constant
Bit rate                       : 160 Kbps
Channel(s)                     : 2 channels
Sampling rate                  : 48.0 KHz
Compression mode               : Lossy
Delay relative to video        : -80ms
Stream size                    : 50.4 MiB (2%)
Language                       : English




У вас нет необходимых прав для просмотра вложений в этом сообщении.