Джейми Оливер. Сахарная лихорадка / Jamie's Sugar Rush [2015, Кулинарное шоу, HDTV, RUS/ENG]

Рецепты салатов, закусок, мясных блюд, горячих напитков и сладких блюд
Торрент Сидеров Личеров Размер
torrent_5149888.torrent
10 3 2.61 ГБ
Аватара пользователя
Stepan
Администратор
Сообщения: 52269
Зарегистрирован: 05 ноя 2011, 20:36

Джейми Оливер. Сахарная лихорадка / Jamie's Sugar Rush [2015, Кулинарное шоу, HDTV, RUS/ENG]

Сообщение Stepan » 19 сен 2016, 00:05

Джейми Оливер. Сахарная лихорадка / Jamie's Sugar Rush

Страна: Соединённое Королевство Великобритании и Северной Ирландии
Тематика: Кулинарное шоу
Тип раздаваемого материала: Кулинарное шоу
Продолжительность: 00:46:52
Год выпуска: 2015

Язык: Русский
Перевод: Профессиональный (многоголосый, закадровый)

Описание: Джейми Оливер возвращается с кампанией, посвященной исследованию сахарных добавок в пищу, которые негативно влияют на здоровье миллионов людей, и тому, как можно улучшить эту ситуацию. Эксперты предупреждают об опасности чрезмерного употребления сахара, сравнимого с употреблением алкоголя или курения и способствующего ожирению и появлению сахарного диабета 2 типа, разрушающего миллионы жизней.

Качество: HDTV
Формат: TS
Видео кодек: AVC
Аудио кодек: MP2
Видео: AVC, 1920x1080 (16:9), 25.000 fps, 7 251 Kbps (0.140 bit/pixel)
Аудио: MP2, 48.0 KHz, 2 ch, 160 Kbps, CBR (Russian)
Аудио 2: MP2, 48.0 KHz, 2 ch, 160 Kbps, CBR (English)
Код:

Код: Выделить всё

General
ID                          : 1 (0x1)
Complete name               : E:\Jamie\Jamie’s.sugar.rush.HDTV.ts
Format                      : MPEG-TS
File size                   : 2.61 GiB
Duration                    : 46mn 53s
Overall bit rate mode       : Variable
Overall bit rate            : 7 968 Kbps

Video
ID                          : 141 (0x8D)
Menu ID                     : 13002 (0x32CA)
Format                      : AVC
Format/Info                 : Advanced Video Codec
Format profile              : Main@L4
Format settings, CABAC      : Yes
Format settings, ReFrames   : 4 frames
Codec ID                    : 27
Duration                    : 46mn 53s
Bit rate                    : 7 251 Kbps
Width                       : 1 920 pixels
Height                      : 1 080 pixels
Display aspect ratio        : 16:9
Frame rate                  : 25.000 fps
Standard                    : Component
Color space                 : YUV
Chroma subsampling          : 4:2:0
Bit depth                   : 8 bits
Scan type                   : MBAFF
Scan type, store method     : Interleaved fields
Scan order                  : Top Field First
Bits/(Pixel*Frame)          : 0.140
Stream size                 : 2.37 GiB (91%)
Color range                 : Limited
Color primaries             : BT.709
Transfer characteristics    : BT.709
Matrix coefficients         : BT.709

Audio #1
ID                          : 144 (0x90)
Menu ID                     : 13002 (0x32CA)
Format                      : MPEG Audio
Format version              : Version 1
Format profile              : Layer 2
Mode                        : Joint stereo
Codec ID                    : 3
Duration                    : 46mn 53s
Bit rate mode               : Constant
Bit rate                    : 160 Kbps
Channel(s)                  : 2 channels
Sampling rate               : 48.0 KHz
Compression mode            : Lossy
Stream size                 : 53.7 MiB (2%)
Language                    : Russian

Audio #2
ID                          : 145 (0x91)
Menu ID                     : 13002 (0x32CA)
Format                      : MPEG Audio
Format version              : Version 1
Format profile              : Layer 2
Mode                        : Joint stereo
Codec ID                    : 3
Duration                    : 46mn 53s
Bit rate mode               : Constant
Bit rate                    : 160 Kbps
Channel(s)                  : 2 channels
Sampling rate               : 48.0 KHz
Compression mode            : Lossy
Stream size                 : 53.7 MiB (2%)
Language                    : English




У вас нет необходимых прав для просмотра вложений в этом сообщении.