В гостях у Джейми Оливера / Jamie At Home (с1: 1-13 из 13; с2: 1-13 из 1-13)[2006, Кулинарное шоу, DVB, RUS/ENG]

Рецепты салатов, закусок, мясных блюд, горячих напитков и сладких блюд
Торрент Сидеров Личеров Размер
torrent_4890216.torrent
6 1 18.04 ГБ
Аватара пользователя
Stepan
Администратор
Сообщения: 52270
Зарегистрирован: 05 ноя 2011, 20:36

В гостях у Джейми Оливера / Jamie At Home (с1: 1-13 из 13; с2: 1-13 из 1-13)[2006, Кулинарное шоу, DVB, RUS/ENG]

Сообщение Stepan » 19 сен 2016, 00:05

В гостях у Джейми Оливера / Jamie At Home

Страна: Соединённое Королевство Великобритании и Северной Ирландии
Тематика: Кулинарное шоу
Тип раздаваемого материала: Видеоурок
Продолжительность: 00:25:58
Год выпуска: 2006

Язык: Русский + Английский
Перевод: Профессиональный (одноголосый)

Язык субтитров: нет
Описание: Приготовление еды никогда еще не выглядело столь интригующе интересным! Захватывающее кулинарное шоу знаменитого английского шеф-повара Джейми Оливера вряд ли сможет оставить кого-нибудь равнодушным. Оливер призывает зрителей отбросить страхи и почтительный трепет перед поварским искусством. Рецепты его блюд неординарны, свежи, привлекательны и практичны. Отбросьте правила и стереотипы, и вы узнаете много нового! Пусть русское название не собьет телезрителя с толку! Ведь речь идет о любимом миллионами персонаже - чудесном парне и всемирно известном английском поваре Джейми Оливере. Так что авторы сериала имели в виду его знаменитую открытость (а мы добавим: доброту и веселый нрав). У Джейми есть неоспоримое ноу-хау: он не просто демонстрирует свое искусство или дает кулинарные советы, - вы постоянно ощущаете во всем, что этот молодой человек делает и говорит, стремление помочь всем жить более радостно и достойно. Солнечное настроение не оставляет вас после каждой встречи с теперь уже "сэром Оливером"!

Доп. информация:
Чистая запись с канала FoxLife без перекодирования.
Код:

Код: Выделить всё

General
ID                          : 16 (0x10)
Complete name               : E:\Jamie\Jamie At Home\Jamie.At.Home.S01.E01.DVB.ts
Format                      : MPEG-TS
File size                   : 691 MiB
Duration                    : 24mn 48s
Overall bit rate mode       : Variable
Overall bit rate            : 3 896 Kbps

Video
ID                          : 41 (0x29)
Menu ID                     : 3 (0x3)
Format                      : MPEG Video
Format version              : Version 2
Format profile              : Main@Main
Format settings, BVOP       : Yes
Format settings, Matrix     : Custom
Format settings, GOP        : Variable
Format settings, picture st : Frame
Codec ID                    : 2
Duration                    : 24mn 48s
Bit rate mode               : Variable
Bit rate                    : 3 315 Kbps
Maximum bit rate            : 3 400 Kbps
Width                       : 720 pixels
Height                      : 576 pixels
Display aspect ratio        : 16:9
Frame rate                  : 25.000 fps
Standard                    : PAL
Color space                 : YUV
Chroma subsampling          : 4:2:0
Bit depth                   : 8 bits
Scan type                   : Interlaced
Scan order                  : Top Field First
Compression mode            : Lossy
Bits/(Pixel*Frame)          : 0.320
Time code of first frame    : 00:00:00:00
Time code source            : Group of pictures header
GOP, Open/Closed            : Open
Stream size                 : 588 MiB (85%)
Writing library             : (dvd5: Jun 16 2014)
GOP, Open/Closed of first f : Closed

Audio #1
ID                          : 44 (0x2C)
Menu ID                     : 3 (0x3)
Format                      : MPEG Audio
Format version              : Version 1
Format profile              : Layer 2
Codec ID                    : 3
Duration                    : 24mn 48s
Bit rate mode               : Constant
Bit rate                    : 192 Kbps
Channel(s)                  : 2 channels
Sampling rate               : 48.0 KHz
Compression mode            : Lossy
Delay relative to video     : 40ms
Stream size                 : 34.1 MiB (5%)

Audio #2
ID                          : 45 (0x2D)
Menu ID                     : 3 (0x3)
Format                      : MPEG Audio
Format version              : Version 1
Format profile              : Layer 2
Codec ID                    : 3
Duration                    : 24mn 48s
Bit rate mode               : Constant
Bit rate                    : 192 Kbps
Channel(s)                  : 2 channels
Sampling rate               : 48.0 KHz
Compression mode            : Lossy
Delay relative to video     : 40ms
Stream size                 : 34.1 MiB (5%)
Качество: DVB
Формат: TS
Видео кодек: MPEG2
Аудио кодек: MP2
Видео: MPEG2 Video 720x576 (16:9) 25fps [V: mpeg2 main, yuv420p, 720x576]
Аудио: MPEG Audio 48000Hz stereo 192kbps [A: mp2, 48000 Hz, stereo, 192 kb/s]
Аудио 2: MPEG Audio 48000Hz stereo 192kbps [A: mp2, 48000 Hz, stereo, 192 kb/s]
1 СезонPotatoes
Peas & Broad Beans
Onions
Strawberries
Summer Brassicas
Carrots and Beets
Barbecue
Summer Salad
Beans
Tomatoes
Pickles & Preserves
Courgettes
[*]Pizza2 СезонAsparagus
Eggs
Feathered Game
Furred Game
Lamb
Leeks
Mushrooms
Pastr
Pepper & Chillies
Pumpkin & Squash
Rhubarb
Winter Salad
[*]Winter Veg




У вас нет необходимых прав для просмотра вложений в этом сообщении.