На ножах / Сезон 1 / Выпуски 1-12 [2016, ТВ-шоу, кулинария,WEBRip]

Рецепты салатов, закусок, мясных блюд, горячих напитков и сладких блюд
Торрент Сидеров Личеров Размер
torrent_5278879.torrent
1 0 8.56 ГБ
Аватара пользователя
Stepan
Администратор
Сообщения: 52270
Зарегистрирован: 05 ноя 2011, 20:36

На ножах / Сезон 1 / Выпуски 1-12 [2016, ТВ-шоу, кулинария,WEBRip]

Сообщение Stepan » 19 сен 2016, 00:05

На ножах. Сезон 1

Дата/Год выпуска: 2016
Страна:Россия, Пятница ТВ
Жанр: ТВ-шоу, кулинария
Продолжительность:~ 00:47:00 выпуск
Язык: русский
Ведущий: Константин Ивлев


Мы проверили сотни ресторанов по всей стране. И не зря! Многие из тех, кто откровенно не дотягивал или спотыкался в погоне за высокими стандартами сервиса, встали на путь исправления. Они обратились за помощью к легендарному шефу, гуру ресторанного бизнеса, добрейшему и терпеливейшему Мастеру своего дела Константину Ивлеву! Терпеливый мастер приедет и научит, как дальше жить, готовить и обслуживать посетителей, чтобы стать приличным и прибыльным заведением. Только выдержат ли новиспеченные ученики эту школу? Ведь Терпение мастера не безгранично! Обладатель тяжелой руки и адепт шоковой терапии рубит с плеча и делает фарш из всех, кто отказывается понимать с первого раза. Но результат того стоит! Встань на путь исправления! Но бойся гнева Терпеливого Мастера!

Доп.Информация:
Релиз
(Выпуски 1-12)


Качество:WEBRip
Формат: AVC
Видео: MPEG-4 AVC, ~ 1900 Кбит/с, 720x400
Аудио: MP3, 2 ch, 128 Кбит/с
General
Unique ID : 219409854893152292410545846701561494245 (0xA510CD0BED40A136B14840C3410C3AE5)
Complete name : D:\Кинчег\На ножах (2016)\На ножах.
Format : Matroska
Format version : Version 4 / Version 2
File size : 772 MiB
Duration : 53mn 3s
Overall bit rate mode : Variable
Overall bit rate : 2 034 Kbps
Encoded date : UTC 2016-07-29 16:40:32
Writing application : mkvmerge v9.3.1 ('Mask Machine') 64bit
Writing library : Lavf54.63.104

Video
ID : 1
Format : AVC
Format/Info : Advanced Video Codec
Format profile : Main@L3
Format settings, CABAC : Yes
Format settings, ReFrames : 1 frame
Format settings, GOP : M=1, N=15
Codec ID : V_MPEG4/ISO/AVC
Duration : 53mn 3s
Bit rate mode : Variable
Bit rate : 1 865 Kbps
Maximum bit rate : 5 700 Kbps
Width : 720 pixels
Height : 400 pixels
Display aspect ratio : 16:9
Frame rate mode : Constant
Frame rate : 25.000 fps
Color space : YUV
Chroma subsampling : 4:2:0
Bit depth : 8 bits
Scan type : Progressive
Bits/(Pixel*Frame) : 0.259
Stream size : 708 MiB (92%)
Default : Yes
Forced : No
DURATION : 00:53:03.800000000
NUMBER_OF_FRAMES : 79595
NUMBER_OF_BYTES : 757490786
_STATISTICS_WRITING_APP : mkvmerge v9.3.1 ('Mask Machine') 64bit
_STATISTICS_WRITING_DATE_UTC : 2016-07-29 16:40:32
_STATISTICS_TAGS : BPS DURATION NUMBER_OF_FRAMES NUMBER_OF_BYTES

Audio
ID : 2
Format : MPEG Audio
Format version : Version 1
Format profile : Layer 3
Mode : Joint stereo
Mode extension : MS Stereo
Codec ID : A_MPEG/L3
Codec ID/Hint : MP3
Duration : 53mn 3s
Bit rate mode : Constant
Bit rate : 128 Kbps
Channel(s) : 2 channels
Sampling rate : 48.0 KHz
Compression mode : Lossy
Stream size : 48.6 MiB (6%)
Writing library : LAME3.99.5
Default : Yes
Forced : No
DURATION : 00:53:03.792000000
NUMBER_OF_FRAMES : 132655
NUMBER_OF_BYTES : 50939520
_STATISTICS_WRITING_APP : mkvmerge v9.3.1 ('Mask Machine') 64bit
_STATISTICS_WRITING_DATE_UTC : 2016-07-29 16:40:32
_STATISTICS_TAGS : BPS DURATION NUMBER_OF_FRAMES NUMBER_OF_BYTES


Releases by
У вас нет необходимых прав для просмотра вложений в этом сообщении.