Сообщение

Кулинарный поединок с Джейми Оливером / Jamie & Jimmy's Food Fight Club (1-4 из 1-4) [2012, Кулинарное шоу, DVB, RUS/ENG]

Сообщение Stepan » 19 сен 2016, 00:06

Кулинарный поединок с Джейми Оливером / Jamie & Jimmy's Food Fight Club

Страна: Соединённое королевство Великобритании и Северной Ирландии
Тематика: Кулинарное шоу
Тип раздаваемого материала: Видеоурок
Продолжительность: 00:45:20
Год выпуска: 2012

Язык: Русский + Английский
Перевод: Профессиональный (многоголосый, закадровый)


Язык субтитров: нет
Описание: Джейми Оливер и Джимми Доэрти дружат со школьной скамьи. Оба всегда любили вкусно поесть. Теперь, когда они оба повзрослели и вернулись в родной Эссекс, они открыли небольшое кафе.

Вкусная еда от Джейми, немного науки от Джимми и встречи с очень особенными друзьями, среди которых Гвинет Пэлтроу, Алан Карр, Гари Барлоу и Джонатан Росс.

Качество: DVB
Формат: TS
Видео кодек: MPEG2
Аудио кодек: MP2
Видео: MPEG 2, 720x576 (16:9), 25.000 fps, 2,473 Mbps (0.239 bit/pixel)
Аудио: MP2, 48.0 KHz, 2 ch, 192 Kbps, CBR
Аудио 2: MP2, 48.0 KHz, 2 ch, 192 Kbps, CBR
За 1 серию спасибо пользователю Охрим
Код:
Код: Выделить всё
General
ID                                       : 16 (0x10)
Complete name                            : E:\Jamie and Jimmy's Food Fight Club\Jamie.And.Jimmys.Food.Fight.Club.S01E02.DVB.ts
Format                                   : MPEG-TS
File size                                : 976 MiB
Duration                                 : 45mn 20s
Overall bit rate mode                    : Variable
Overall bit rate                         : 3 010 Kbps

Video
ID                                       : 75 (0x4B)
Menu ID                                  : 1 (0x1)
Format                                   : MPEG Video
Format version                           : Version 2
Format profile                           : Main@Main
Format settings, BVOP                    : Yes
Format settings, Matrix                  : Custom
Format settings, GOP                     : Variable
Codec ID                                 : 2
Duration                                 : 45mn 20s
Bit rate mode                            : Variable
Bit rate                                 : 2 473 Kbps
Maximum bit rate                         : 15.0 Mbps
Width                                    : 720 pixels
Height                                   : 576 pixels
Display aspect ratio                     : 16:9
Frame rate                               : 25.000 fps
Standard                                 : PAL
Color space                              : YUV
Chroma subsampling                       : 4:2:0
Bit depth                                : 8 bits
Scan type                                : Interlaced
Scan order                               : Top Field First
Compression mode                         : Lossy
Bits/(Pixel*Frame)                       : 0.239
Time code of first frame                 : 00:00:00:00
Time code source                         : Group of pictures header
Stream size                              : 802 MiB (82%)

Audio #1
ID                                       : 73 (0x49)
Menu ID                                  : 1 (0x1)
Format                                   : MPEG Audio
Format version                           : Version 1
Format profile                           : Layer 2
Codec ID                                 : 3
Duration                                 : 45mn 20s
Bit rate mode                            : Constant
Bit rate                                 : 192 Kbps
Channel count                            : 2 channels
Sampling rate                            : 48.0 KHz
Compression mode                         : Lossy
Stream size                              : 62.3 MiB (6%)

Audio #2
ID                                       : 74 (0x4A)
Menu ID                                  : 1 (0x1)
Format                                   : MPEG Audio
Format version                           : Version 1
Format profile                           : Layer 2
Codec ID                                 : 3
Duration                                 : 45mn 20s
Bit rate mode                            : Constant
Bit rate                                 : 192 Kbps
Channel count                            : 2 channels
Sampling rate                            : 48.0 KHz
Compression mode                         : Lossy
Stream size                              : 62.3 MiB (6%)





Постеры

Соцсети

 

Статистика

Автор: Stepan
Добавлен: 19 сен 2016, 00:06
Размер: 3.9 ГБ
Размер: 4 190 601 968 байт
Сидеров: 15
Личеров: 2
Скачали: 0
Здоровье: 100%
Раздающих: 100%
Статус:
Скорость скачивания: 0 байт/сек
Скорость раздачи: 0 байт/сек
Последний сидер: 8 дней 16 часов 18 минут 56 секунд назад
Последний личер: 8 дней 16 часов 18 минут 56 секунд назад
Приватный: Нет (DHT включён)
Кулинария Скачать торрент
Скачать торрент
[ Размер 20.28 КБ / Просмотров 4 ]

Поделиться



  • Похожие торренты
    Ответы
    Просмотры
    Последнее сообщение

Вернуться в Кулинария