Сибирские блюда из стерляди / Siberian sterlet dishes [2011, Документальный, DVB]

Рецепты салатов, закусок, мясных блюд, горячих напитков и сладких блюд
Торрент Сидеров Личеров Размер
torrent_3990929.torrent
2 1 812.31 МБ
Аватара пользователя
Stepan
Администратор
Сообщения: 52388
Зарегистрирован: 05 ноя 2011, 20:36

Сибирские блюда из стерляди / Siberian sterlet dishes [2011, Документальный, DVB]

Сообщение Stepan » 19 сен 2016, 00:07

Сибирские блюда из стерляди / Siberian sterlet dishes

Год выпуска: 2011
Страна: Россия
Жанр: Документальный
Продолжительность: 00:39:59
Перевод: Не требуется
Описание: На слиянии двух могучих сибирских рек, Оби и Иртыша, стоит город Ханты-Мансийск, который связал в своем названии два народа. Ханты и манси издавна были хозяевами этих мест. Их основным промыслом было рыболовство, поэтому в рыбных блюдах они по-настоящему знали толк. Тушеная, жареная, печеная, заливная и разварная - рыба была неотъемлемой частью как повседневного, так и праздничного стола. Рыбные блюда, приготовленные по сибирским традициям в ханты-манскийском ресторане «Посейдон», приобретают особенный, неповторимый вкус. В этом убедилась ведущая программы - Наталия Крылова.

Качество: DVB
Формат: MPEG
Видео кодек: MPEG2
Аудио кодек: MPEG1 Layer 2
Видео: MPEG2 Video 720x576 (4:3) 25.00fps ~2 591 Kbps
Аудио: MPEG Audio 48000Hz 2 channels 192 Кбит/сек
H:\01__RTG_TV\01_МПЕГ\Сибирские блюда из стерляди_DVB by kuzmichm2196 .mpg
General
Complete name : H:\01__RTG_TV\01_МПЕГ\Сибирские блюда из стерляди_DVB by kuzmichm2196 .mpg
Format : MPEG-PS
File size : 812 MiB
Duration : 39mn 59s
Overall bit rate : 2 839 Kbps
Writing library : (c) 1998-2008 Womble Multimedia, Inc. / MPEG Video Wizard (08/2008) / Aug 25 2008
Video #224
ID : 224 (0xE0)
Format : MPEG Video
Format version : Version 2
Format profile : Main@Main
Format settings, BVOP : Yes
Format settings, Matrix : Custom
Format settings, GOP : M=3, N=24
Duration : 39mn 59s
Bit rate mode : Variable
Bit rate : 2 591 Kbps
Nominal bit rate : 15.0 Mbps
Width : 720 pixels
Height : 576 pixels
Display aspect ratio : 4:3
Frame rate : 25.000 fps
Standard : PAL
Color space : YUV
Chroma subsampling : 4:2:0
Bit depth : 8 bits
Scan type : Interlaced
Scan order : Top Field First
Compression mode : Lossy
Bits/(Pixel*Frame) : 0.250
Stream size : 741 MiB (91%)
Writing library : (c) 1998-2008 Womble Multimedia, Inc. / MPEG Video Wizard (08/2008) / Aug 25 2008
Audio #192
ID : 192 (0xC0)
Format : MPEG Audio
Format version : Version 1
Format profile : Layer 2
Duration : 39mn 59s
Bit rate mode : Constant
Bit rate : 192 Kbps
Channel(s) : 2 channels
Sampling rate : 48.0 KHz
Compression mode : Lossy
Stream size : 54.9 MiB (7%)
У вас нет необходимых прав для просмотра вложений в этом сообщении.