Сообщение

Лучший повар америки / MastеrChef US / Сезон: 2 / Выпуск: 1-20 (20) [2011 г.,Реалити-шоу, кулинария, IPTVRip] RUS

Сообщение Stepan » 19 сен 2016, 00:07

Лучший повар америки 2 сезон / MastеrChef US Season 2

Страна: США
Тематика: кулинария
Тип раздаваемого материала: реалити-шоу
Продолжительность: ~ 00:40:00
Год выпуска: 2011
Язык: Русский
Перевод: Профессиональный (двухголосый)

Описание: Повар-профессионал Гордон Рамзи ищет лучших кулинаров-любителей Америки. Посмотрите, как участники конкурса демонстрируют свою оригинальность, творческие подходы и страсть к приготовлению пищи. Все они полны надежд выиграть гран-при, который изменит их жизнь, и получить почетное звание следующего "Лучшего шеф-повара Америки".

Качество: IPTVRip
Формат: AVI
Видео кодек: XviD
Аудио кодек: MP3
1 серия:
Video: Xvid 640x352 ~1 006 Kbps 23.976fps 0.186 bit/pixel
Audio1: MPEG Audio Layer 3 48000Hz stereo 160kbps
2,3,4 серии:
Video: Xvid 512x288 ~984 Kbps 25fps ~0.267 bit/pixel
Audio1: MPEG Audio Layer 3 48000Hz stereo 160(2,3)/128(4) Kbps
остальные серии:
Video: Xvid 640x352 ~1 015 Kbps 25fps ~0.180 bit/pixel
Audio1: MPEG Audio Layer 3 48000Hz stereo 128kbps
C:\Documents and Settings\Admin\Мои документы\Downloads\MC.S1-4\MC_US.S02\MC_US.S02E05.avi
General
Complete name : C:\Documents and Settings\Admin\Мои документы\Downloads\MC.S1-4\MC_US.S02\MC_US.S02E05.avi
Format : AVI
Format/Info : Audio Video Interleave
File size : 342 MiB
Duration : 40mn 54s
Overall bit rate : 1 171 Kbps
Writing application : VirtualDubMod 1.5.4.1 (build 2178/release)
Writing library : VirtualDubMod build 2178/release
Video #0
ID : 0
Format : MPEG-4 Visual
Format profile : Advanced Simple@L5
Format settings, BVOP : 1
Format settings, QPel : No
Format settings, GMC : No warppoints
Format settings, Matrix : Default (H.263)
Muxing mode : Packed bitstream
Codec ID : XVID
Codec ID/Hint : XviD
Duration : 40mn 54s
Bit rate : 1 033 Kbps
Width : 640 pixels
Height : 352 pixels
Display aspect ratio : 16:9
Frame rate : 25.000 fps
Color space : YUV
Chroma subsampling : 4:2:0
Bit depth : 8 bits
Scan type : Progressive
Compression mode : Lossy
Bits/(Pixel*Frame) : 0.183
Stream size : 302 MiB (88%)
Writing library : XviD 1.2.1 (UTC 2008-12-04)
Audio #1
ID : 1
Format : MPEG Audio
Format version : Version 1
Format profile : Layer 3
Mode : Joint stereo
Mode extension : MS Stereo
Codec ID : 55
Codec ID/Hint : MP3
Duration : 40mn 54s
Bit rate mode : Constant
Bit rate : 128 Kbps
Channel(s) : 2 channels
Sampling rate : 48.0 KHz
Compression mode : Lossy
Stream size : 37.4 MiB (11%)
Alignment : Aligned on interleaves
Interleave, duration : 40 ms (1.00 video frame)
Interleave, preload duration : 504 ms

Постеры

Соцсети

 

Статистика

Автор: Stepan
Добавлен: 19 сен 2016, 00:07
Размер: 6.59 ГБ
Размер: 7 081 168 896 байт
Сидеров: 14
Личеров: 4
Скачали: 0
Здоровье: 100%
Раздающих: 100%
Статус:
Скорость скачивания: 0 байт/сек
Скорость раздачи: 0 байт/сек
Последний сидер: 26 дней 15 часов 25 минут 48 секунд назад
Последний личер: 26 дней 15 часов 25 минут 48 секунд назад
Приватный: Нет (DHT включён)
Кулинария Скачать торрент
Скачать торрент
[ Размер 34.34 КБ / Просмотров 0 ]

Поделиться



Вернуться в Кулинария