Сообщение

Курсы элементарной кулинарии Гордона Рамзи (1-20 серии из 20) /Gordon Ramsay's Ultimate Cookery Course[2012, ТВ-шоу, кулинария, SATRip, RUS] (Видеоурок)

Сообщение Stepan » 19 сен 2016, 00:08

Курсы элементарной кулинарии Гордона Рамзи (1-20 серии из 20) / Gordon Ramsay's Ultimate Cookery Course

Страна: Великобритания, One Potato, Two Potato, Channel 4
Тематика: ТВ-шоу, кулинария
Тип раздаваемого материала: Видеоурок
Продолжительность: 20 x ~ 00:22:00
Год выпуска: 2012

Язык: Русский
Перевод: Профессиональный (двухголосый)

Описание: Кулинарные уроки на кухне от шефа Рамзи. Это восхитительно! Нас научат готовить оригинальные, вкусные, фантастические блюда у себя дома. Не сложно и быстро. От простой выпечки до фирменных праздничных рецептов, доступно и увлекательно он проведет нас в мир аппетитной кулинарии. Фирменные хитрости и секреты сделают из вас настоящего профессионала на кухне. Гордон Разми утверждает, что это единственный курс, который необходимо вам посмотреть, чтобы научиться готовить!!!

Релиз:
Tarjaa


Содержание:
01. В своей кулинарной школе Гордон научит готовить потрясающую еду. Восхитительные свиные отбивные с кисло-сладкими перцами, жареные морские гребешки с хрустящим яблочным салатом, а также секреты, которые помогут сохранить ножи острыми.
02. В своей кулинарной школе Гордон научит, как все упростить. Говядина чили в листьях латука, потрясающий лосось, отваренный в бульоне мисо, и руководство по покупке идеальной рыбы.
03. Сегодня Гордон научит нас как готовить блюда с перцем чили. Барабулька со сладким соусом чили, классический цыплёнок по-ямайски и очень простой острый салат с говядиной.
04. В своей кулинарной школе Гордон покажет как готовить блюда со специями. Острый ягнёнок, приготовленный на медленном огне, суп из сладкой кукурузы с карри и простой, но восхитительный ароматный рисовый пудинг
05.В своей кулинарной школе Гордон расскажет как приготовить его коронные блюда бюджетно. Ароматный рис с колбасками, запечённая макрель с чесноком и паприкой и незабываемый ягненок с жареным хлебом.
06.Гордон покажет как приготовить оладьи из лука порея и сыра грюйер с яичницей, изумительный яблочный крамбл и потрясающие домашние ньокки.
07.Гордон сегодня покажет как без волнений приготовить аппетитные свиные рёбрышки, пряное чатни и чудесного цыпленка с чили, имбирём и кориандром.
08.Сегодня в своей кулинарной школе Гордон покажет нам свои любимые простые рецепты. Фрикадельки в ароматном соусе из кокосового молока и великолепная альтернатива шоколадным брауни - блонди с белым шоколадом.
09.Гордон покажет как готовить быстро и вкусно. Ломтики копчёной свинины с домашним соусом барбекю, стир-фрай с курицей и рисовой лапшой и быстрый суп с лапшой, варёным яйцом и зелёным луком. -
10.Сегодня Гордон готовит такос с говядиной и майонезом васаби и вкусные хот-доги с чили.
11.Сегодня Гордон будет говорить о домашней выпечке. Ароматная фокачча с оливками, помидорами и розмарином, быстрые лепёшки с лимоном, тимьяном и рикоттой, а также эффектный бисквит со свежим имбирём.
12.Сегодня Гордон продолжит свой урок, посвящённый выпечке, и покажет как приготовить простой киш с луком-пореем и панчеттой, стильный запечённый чизкейк и аппетитные шоколадные пирожные.
13.Сегодня Гордон покажет нам, как готовить на медленном огне потрясающие блюда. Карамелизированный инжир с рикоттой, фантастические говяжьи рёбрышки и нежнейшая говяжья грудинка.
14.Гордон продолжит учить нас готовить любимые блюда на медленном огне. Восхитительная тушеная фаршированная баранья грудинка, супер нежная запечённая свиная грудинка с фенхелем.
15.Сегодня в своей кулинарной школе Гордон покажет нам свои лучшие рецепты для позднего завтрака. Аппетитные острые блинчики, восхитительная и простая фриттата и суфле из трёх сортов сыра.
16.Ёще несколько рецептов для завтрака от Гордона Рамзи - идеальный сэндвич со стейком, блины с сочным крабом и маскарпоне и домашние пышки.
17.Сегодня в своей кулинарной школе Гордон поделится с нами рецептами блюд для ужина перед телевизором. Восхитительная паста с грибами и луком-пореем, потрясающие оладьи со сладкой кукурузой и йогуртовым соусом.
18.Сегодня Гордон будет рассказывать об изумительно простых рецептах для ужина. Острые котлеты из тунца и невероятно вкусный ананас на гриле с пряной карамелью.
19.Сегодня в своей кулинарной школе Гордон расскажет нам о приготовлении блюд для особых случаев. Фаршированный ягнёнок со шпинатом и кедровыми орешками, свежие роллы с креветками во вьетнамском стиле и роскошный сибас, фаршированный фенхелем, лимоном и каперсами.
20.Гордон научит нас готовить великолепные блюда для особых случаев - вкуснейший салат с зелёной папайей и роскошный наполеон с малиной.
MediaInfo:
General
Complete name : Gordon Ramsay's Ultimate Cookery Course_Tarjaa\Gordon.Ramsays.Ultimate.Cookery.Course.V.03_Tarjaa.avi
Format : AVI
Format/Info : Audio Video Interleave
File size : 338 MiB
Duration : 22mn 8s
Overall bit rate : 2 133 Kbps
Writing application : VirtualDubMod 1.5.10.3 | www.virtualdub-fr.org || (build 2550/release)
Writing library : VirtualDubMod build 2550/release

Video
ID : 0
Format : MPEG-4 Visual
Format profile : Advanced Simple@L5
Format settings, BVOP : 1
Format settings, QPel : No
Format settings, GMC : No warppoints
Format settings, Matrix : Default (H.263)
Codec ID : XVID
Codec ID/Hint : XviD
Duration : 22mn 8s
Bit rate : 1 995 Kbps
Width : 720 pixels
Height : 400 pixels
Display aspect ratio : 16:9
Frame rate : 25.000 fps
Color space : YUV
Chroma subsampling : 4:2:0
Bit depth : 8 bits
Scan type : Progressive
Compression mode : Lossy
Bits/(Pixel*Frame) : 0.277
Stream size : 316 MiB (94%)
Writing library : XviD 1.2.1 (UTC 2008-12-04)

Audio
ID : 1
Format : MPEG Audio
Format version : Version 1
Format profile : Layer 3
Codec ID : 55
Codec ID/Hint : MP3
Duration : 22mn 8s
Bit rate mode : Constant
Bit rate : 128 Kbps
Channel(s) : 2 channels
Sampling rate : 48.0 KHz
Compression mode : Lossy
Stream size : 20.3 MiB (6%)
Alignment : Aligned on interleaves
Interleave, duration : 40 ms (1.00 video frame)
Interleave, preload duratio : 504 ms
Writing library : LAME3.98r
Encoding settings : -m s -V 4 -q 2 -lowpass 17 -b 128
Качество: SATRip
Формат: AVI
Видео кодек: XviD
Аудио кодек: MP3
Видео: Xvid 720x400 25.00fps Bit rate:~ 1995 Kbps
Аудио: MPEG Audio Layer 3 48000Hz stereo 2 ch, ~ 128 Кбит/с [Stream 01]

Постеры

Соцсети

 

Статистика

Автор: Stepan
Добавлен: 19 сен 2016, 00:07
Размер: 6.46 ГБ
Размер: 6 935 672 832 байт
Сидеров: 25
Личеров: 9
Скачали: 0
Здоровье: 100%
Раздающих: 100%
Статус:
Скорость скачивания: 0 байт/сек
Скорость раздачи: 0 байт/сек
Последний сидер: 1 месяц 23 дня 9 часов 43 минуты 28 секунд назад
Последний личер: 1 месяц 23 дня 9 часов 43 минуты 28 секунд назад
Приватный: Нет (DHT включён)
Кулинария Скачать торрент
Скачать торрент
[ Размер 34.43 КБ / Просмотров 5 ]

Поделиться



Вернуться в Кулинария