Сообщение

Принципы Лазерсона (72 выпуска), Принципы Лазерсона Online (8 выпусков) [2014-2015, Кулинарное шоу, WEB-DL, 720p, RUS] [2014-2015, Кулинария, RUS] (Видеоурок)

Сообщение Stepan » 19 сен 2016, 00:08

Принципы Лазерсона
Принципы Лазерсона Online

Год выпуска: 2014-2015
Страна: Россия
Тематика: Кулинария
Тип раздаваемого материала: Видеоурок
Продолжительность: 24-57 минут на выпуск
Перевод: Не требуется

Описание: Оказывается, хорошо готовить можно и без рецепта перед глазами,
достаточно знать сочетаемость продуктов, а также пропорции, в которых эти продукты
должны присутствовать в блюде.
Ведущий программы шеф-повар Илья Лазерсон в процессе многолетней практики
вывел эти пропорции для себя и охотно делится своими знаниями со зрителями.

Качество: WEB-DL
Формат: MP4
Видео кодек: AVC
Аудио кодек: AAC
Видео: 1280x720 25.00fps, ~2500 Kbit/sec
Аудио: Russian: AAC, 192 kb/s (2 ch)
01. Кислые супы
02. Котлеты из фарша
03. Тушеные блюда с мясом
04. Домашний посол рыбы
05. Селедка под шубой
06. Салатные заправки
07. Заправочные супы
08. Винегрет
09. Рыбные котлеты
10. Маринование мяса
11. Домашний майонез
12. Маринование красной рыбы для жарки
13. Картошка
14. Быстрые супы
15. Луковые принципы
16. Рататуй
17. Цыпленок табака
18. Сациви
19. Пицца
20. Киевская котлета
21. Харчо
22. Гуляш
23. Фарширование птицы
24. Лобио
25. Кролик
26. Паста карбонара
27. Тыква
28. Баклажанная икра
29. Бешбармак
30. Стейк
31. Пельмени
32. Кляр
33. Утка
34. Перепела
35. Салат «Цезарь»
36. Вареные салаты
37. Суп-пюре
38. Хачапури
39. Китайская кухня
40. Паштет
41. Блины
42. Фаршированные блинчики
43. Борщ
44. Среднеазиатский плов
45. Ананас
46. Фондю
47. Чебуреки
48. Индийская еда
49. Салаты со сладким перцем
50. Запеканка
51. Жареная рыба
52. Салаты с говядиной
53. Голубцы
54. Суши
55. Иранский плов
56. Уха
57. Омлет
58. Фламбе
59. Капустные салаты
60. Полента
61. Вареники
62. Авокадо
63. Лагман
64. Паэлья
65. Бефстроганов
66. Фунчёза
67. Бигос
68. Ризотто
69. Кальмары
70. Бульоны
71. Суп Том Ям
72. Лазанья
Online
Клубничные рецепты
Оригинальная шуба с грибами
Салат-коктейль из креветок с красным снегом и биск из креветок
Скандинавские фрикадельки с брусничным соусом и пикантным пюре
Суп гаспачо с апельсиновым льдом
Тонкие крахмальные блинчики
Тыквенный суп с зелеными пельмешками
Финская уха с кетой
General
Format : MPEG-4
Format profile : Base Media / Version 2
Codec ID : mp42
File size : 332 MiB
Duration : 26mn 1s
Overall bit rate mode : Variable
Overall bit rate : 1 785 Kbps
Encoded date : UTC 2015-07-15 07:13:18
Tagged date : UTC 2015-07-15 07:13:18
gsst : 0
gstd : 1561053
gssd : B6DC28944MM1438440729878087
gshh : r1---sn-xguxaxjvh-2x1e.googlevideo.com

Video
ID : 1
Format : AVC
Format/Info : Advanced Video Codec
Format profile : High@L3.1
Format settings, CABAC : Yes
Format settings, ReFrames : 1 frame
Codec ID : avc1
Codec ID/Info : Advanced Video Coding
Duration : 26mn 1s
Bit rate : 1 591 Kbps
Maximum bit rate : 4 401 Kbps
Width : 1 280 pixels
Height : 720 pixels
Display aspect ratio : 16:9
Frame rate mode : Constant
Frame rate : 25.000 fps
Color space : YUV
Chroma subsampling : 4:2:0
Bit depth : 8 bits
Scan type : Progressive
Bits/(Pixel*Frame) : 0.069
Stream size : 296 MiB (89%)
Tagged date : UTC 2015-07-15 07:13:35

Audio
ID : 2
Format : AAC
Format/Info : Advanced Audio Codec
Format profile : LC
Codec ID : 40
Duration : 26mn 1s
Bit rate mode : Variable
Bit rate : 192 Kbps
Maximum bit rate : 202 Kbps
Channel(s) : 2 channels
Channel positions : Front: L R
Sampling rate : 44.1 KHz
Compression mode : Lossy
Stream size : 35.7 MiB (11%)
Title : IsoMedia File Produced by Google, 5-11-2011
Language : English
Encoded date : UTC 2015-07-15 07:13:29
Tagged date : UTC 2015-07-15 07:13:35
Раздача обновлена 28.09.2015
Добавлен выпуск «Лазанья»

Тем, кто уже на раздаче, нужно скачать новый torrent-файл и перехешировать для добавления выпусков.

Постеры

Соцсети

 

Статистика

Автор: Stepan
Добавлен: 19 сен 2016, 00:08
Размер: 33.11 ГБ
Размер: 35 550 931 411 байт
Сидеров: 21
Личеров: 11
Скачали: 0
Здоровье: 100%
Раздающих: 100%
Статус:
Скорость скачивания: 0 байт/сек
Скорость раздачи: 0 байт/сек
Последний сидер: 9 часов 47 минут 3 секунды назад
Последний личер: 9 часов 47 минут 3 секунды назад
Приватный: Нет (DHT включён)
Кулинария Скачать торрент
Скачать торрент
[ Размер 170.84 КБ / Просмотров 2 ]

Поделиться



Вернуться в Кулинария