Сообщение

Рождество с Джейми Оливером / Jamie Oliver Christmas with bells on [2011, Кулинарное шоу, HDTV, RUS/ENG]

Сообщение Stepan » 19 сен 2016, 00:08

Рождество с Джейми Оливером / Jamie Oliver Christmas with bells on

Страна: Соединённое Королевство Великобритании и Северной Ирландии
Тематика: Кулинарное шоу
Тип раздаваемого материала: Видеоурок
Продолжительность: 00:46:48
Год выпуска: 2011

Язык: Русский + Английский
Перевод: Профессиональный (одноголосый)

Язык субтитров: нет
Описание: Харизматичный повар Джейми Оливер научит вас готовить классические праздничные блюда, а также добавит в вашу копилку несколько смелых и неожиданных рецептов, идеальных для торжеств и вечеринок.

Доп. информация:


Чистая запись с канала FoxLife HD без перекодирования.
Код:
Код: Выделить всё
General
ID                          : 1 (0x1)
Complete name               : E:\Jamie\Jamie Oliver Christmas with bells on HD\jamie.oliver.christmas.with.bells on.S01.E01.HDTV.ts
Format                      : MPEG-TS
File size                   : 2.60 GiB
Duration                    : 46mn 47s
Overall bit rate mode       : Variable
Overall bit rate            : 7 960 Kbps
Maximum Overall bit rate    : 35.5 Mbps

Video
ID                          : 4113 (0x1011)
Menu ID                     : 1 (0x1)
Format                      : AVC
Format/Info                 : Advanced Video Codec
Format profile              : Main@L4.0
Format settings, CABAC      : Yes
Format settings, ReFrames   : 4 frames
Codec ID                    : 27
Duration                    : 46mn 47s
Bit rate                    : 7 243 Kbps
Width                       : 1 920 pixels
Height                      : 1 080 pixels
Display aspect ratio        : 16:9
Frame rate                  : 25.000 fps
Color space                 : YUV
Chroma subsampling          : 4:2:0
Bit depth                   : 8 bits
Scan type                   : MBAFF
Bits/(Pixel*Frame)          : 0.140
Stream size                 : 2.37 GiB (91%)
Color primaries             : BT.709
Transfer characteristics    : BT.709
Matrix coefficients         : BT.709
Color range                 : Limited

Audio #1
ID                          : 4352 (0x1100)
Menu ID                     : 1 (0x1)
Format                      : MPEG Audio
Format version              : Version 1
Format profile              : Layer 2
Mode                        : Joint stereo
Mode extension              : Intensity Stereo
Codec ID                    : 4
Duration                    : 46mn 47s
Bit rate mode               : Constant
Bit rate                    : 160 Kbps
Channel(s)                  : 2 channels
Sampling rate               : 48.0 KHz
Compression mode            : Lossy
Stream size                 : 53.5 MiB (2%)
Language                    : Russian

Audio #2
ID                          : 4353 (0x1101)
Menu ID                     : 1 (0x1)
Format                      : MPEG Audio
Format version              : Version 1
Format profile              : Layer 2
Mode                        : Joint stereo
Mode extension              : Intensity Stereo
Codec ID                    : 4
Duration                    : 46mn 47s
Bit rate mode               : Constant
Bit rate                    : 160 Kbps
Channel(s)                  : 2 channels
Sampling rate               : 48.0 KHz
Compression mode            : Lossy
Stream size                 : 53.5 MiB (2%)
Language                    : English

Качество: HDTV
Формат: TS
Видео кодек: H.264
Аудио кодек: MP2
Видео: MPEG4 Video (H264) 1920x1080 25fps [V: h264 main L4.0, yuv420p, 1920x1080]
Аудио: MP2 48000Hz stereo 160kbps [A: Russian [rus] (mp2, 48000 Hz, stereo, 160 kb/s)]
Аудио 2: MP2 48000Hz stereo 160kbps [A: English [eng] (mp2, 48000 Hz, stereo, 160 kb/s)]




Постеры

Соцсети

 

Статистика

Автор: Stepan
Добавлен: 19 сен 2016, 00:08
Размер: 5.22 ГБ
Размер: 5 605 820 284 байт
Сидеров: 12
Личеров: 4
Скачали: 1
Здоровье: 100%
Раздающих: 100%
Статус:
Скорость скачивания: 0 байт/сек
Скорость раздачи: 0 байт/сек
Последний сидер: 2 дня 13 часов 50 минут назад
Последний личер: 2 дня 13 часов 50 минут назад
Приватный: Нет (DHT включён)
Кулинария Скачать торрент
Скачать торрент
[ Размер 26.72 КБ / Просмотров 2 ]

Поделиться



Вернуться в Кулинария