Сообщение

Джейми Оливер: Супер еда / Jamie's Super Food [2015, Кулинарное шоу, DVB, RUS/ENG]

Сообщение Stepan » 19 сен 2016, 00:09

Джейми Оливер: Супер еда / Jamie's Super Food

Страна: Соединённое Королевство Великобритании и Северной Ирландии
Тематика: Кулинарное шоу
Тип раздаваемого материала: Видеоурок
Продолжительность: 00:44:01
Год выпуска: 2015

Язык: Русский + Английский
Перевод: Профессиональный (одноголосый)

Описание: Джейми Оливер: Супер еда — это новое увлекательное шоу, которое поможет вам обрести здоровье через правильное питание. Каждую неделю Джейми готовит дневной рацион, состоящий из вкуснейших блюд: идеально сбалансированные аппетитные порции, которые обеспечат вас всеми необходимыми элементами.

Качество: DVB
Формат: TS
Видео кодек: MPEG2
Аудио кодек: MP2
Видео: MPEG2 Video 720x576 (16:9) 25fps [V: mpeg2 main, yuv420p, 720x576]
Аудио: MPEG Audio 48000Hz stereo 192kbps [A: mp2, 48000 Hz, stereo, 192 kb/s]
Аудио 2: MPEG Audio 48000Hz stereo 192kbps [A: mp2, 48000 Hz, stereo, 192 kb/s]
Код:
Код: Выделить всё
General
ID                             : 16 (0x10)
Complete name                  : E:\Jamie\Jamie's super food\Jamie's .Super.Food.S01.E01.DVB.ts
Format                         : MPEG-TS
File size                      : 887 MiB
Duration                       : 44mn 0s
Overall bit rate mode          : Variable
Overall bit rate               : 2 818 Kbps

Video
ID                             : 41 (0x29)
Menu ID                        : 3 (0x3)
Format                         : MPEG Video
Format version                 : Version 2
Format profile                 : Main@Main
Format settings, BVOP          : Yes
Format settings, Matrix        : Custom
Format settings, GOP           : Variable
Format settings, picture struc : Frame
Codec ID                       : 2
Duration                       : 44mn 0s
Bit rate mode                  : Variable
Bit rate                       : 2 290 Kbps
Maximum bit rate               : 5 000 Kbps
Width                          : 720 pixels
Height                         : 576 pixels
Display aspect ratio           : 16:9
Frame rate                     : 25.000 fps
Standard                       : PAL
Color space                    : YUV
Chroma subsampling             : 4:2:0
Bit depth                      : 8 bits
Scan type                      : Interlaced
Scan order                     : Top Field First
Compression mode               : Lossy
Bits/(Pixel*Frame)             : 0.221
Time code of first frame       : 00:00:00:00
Time code source               : Group of pictures header
GOP, Open/Closed               : Open
Stream size                    : 721 MiB (81%)
Writing library                : (dvd5: Jun 16 2014)

Audio #1
ID                             : 44 (0x2C)
Menu ID                        : 3 (0x3)
Format                         : MPEG Audio
Format version                 : Version 1
Format profile                 : Layer 2
Mode                           : Joint stereo
Mode extension                 : Intensity Stereo + MS Stereo
Codec ID                       : 3
Duration                       : 44mn 0s
Bit rate mode                  : Constant
Bit rate                       : 192 Kbps
Channel(s)                     : 2 channels
Sampling rate                  : 48.0 KHz
Compression mode               : Lossy
Stream size                    : 60.4 MiB (7%)

Audio #2
ID                             : 45 (0x2D)
Menu ID                        : 3 (0x3)
Format                         : MPEG Audio
Format version                 : Version 1
Format profile                 : Layer 2
Mode                           : Joint stereo
Mode extension                 : Intensity Stereo + MS Stereo
Codec ID                       : 3
Duration                       : 44mn 0s
Bit rate mode                  : Constant
Bit rate                       : 192 Kbps
Channel(s)                     : 2 channels
Sampling rate                  : 48.0 KHz
Compression mode               : Lossy
Stream size                    : 60.4 MiB (7%)





Постеры

Соцсети

 

Статистика

Автор: Stepan
Добавлен: 19 сен 2016, 00:09
Размер: 5.66 ГБ
Размер: 6 077 509 652 байт
Сидеров: 16
Личеров: 5
Скачали: 1
Здоровье: 100%
Раздающих: 100%
Статус:
Скорость скачивания: 0 байт/сек
Скорость раздачи: 0 байт/сек
Последний сидер: 2 месяца 9 дней 23 часа 23 минуты 29 секунд назад
Последний личер: 2 месяца 9 дней 23 часа 23 минуты 29 секунд назад
Приватный: Нет (DHT включён)
Кулинария Скачать торрент
Скачать торрент
[ Размер 29.11 КБ / Просмотров 4 ]

Поделиться



Вернуться в Кулинария