Домашние блюда с Джейми Оливером / Jamie's comfort food (1-6 из 1-8) [2014, Кулинарное шоу, DVB, RUS/ENG]

Рецепты салатов, закусок, мясных блюд, горячих напитков и сладких блюд
Торрент Сидеров Личеров Размер
torrent_4955995.torrent
20 7 7.57 ГБ
Аватара пользователя
Stepan
Администратор
Сообщения: 52267
Зарегистрирован: 05 ноя 2011, 20:36

Домашние блюда с Джейми Оливером / Jamie's comfort food (1-6 из 1-8) [2014, Кулинарное шоу, DVB, RUS/ENG]

Сообщение Stepan » 19 сен 2016, 00:09

Домашние блюда с Джейми Оливером / Jamie's comfort food

Страна: Соединённое Королевство Великобритании и Северной Ирландии
Тематика: Кулинарное шоу
Тип раздаваемого материала: Видеоурок
Продолжительность: 00:47:52
Год выпуска: 2014

Язык: Русский + Английский
Перевод: Профессиональный (одноголосый)

Язык субтитров: нет
Описание: «Домашние блюда с Джейми Оливером» — это увлекательная кулинарная передача, полная рецептов любимых британцами блюд: это и заново открытая британская классика, и блюда для готовки на открытом воздухе и потрясающие пудинги.

Доп. информация:
Чистая запись с канала FoxLife без перекодирования.
Код:

Код: Выделить всё

General
ID                          : 16 (0x10)
Complete name               : E:\Jamie\Comfort Food Jamie\Comfort.Food.Jamie.S01.E01.DVB.ts
Format                      : MPEG-TS
File size                   : 1.30 GiB
Duration                    : 47mn 51s
Overall bit rate mode       : Variable
Overall bit rate            : 3 896 Kbps

Video
ID                          : 41 (0x29)
Menu ID                     : 3 (0x3)
Format                      : MPEG Video
Format version              : Version 2
Format profile              : Main@Main
Format settings, BVOP       : Yes
Format settings, Matrix     : Custom
Format settings, GOP        : Variable
Format settings, picture st : Frame
Codec ID                    : 2
Duration                    : 47mn 51s
Bit rate mode               : Variable
Bit rate                    : 3 315 Kbps
Maximum bit rate            : 3 400 Kbps
Width                       : 720 pixels
Height                      : 576 pixels
Display aspect ratio        : 16:9
Frame rate                  : 25.000 fps
Standard                    : PAL
Color space                 : YUV
Chroma subsampling          : 4:2:0
Bit depth                   : 8 bits
Scan type                   : Interlaced
Scan order                  : Top Field First
Compression mode            : Lossy
Bits/(Pixel*Frame)          : 0.320
Time code of first frame    : 00:00:00:00
Time code source            : Group of pictures header
GOP, Open/Closed            : Open
Stream size                 : 1.11 GiB (85%)
Writing library             : (dvd5: Jun 16 2014)

Audio #1
ID                          : 44 (0x2C)
Menu ID                     : 3 (0x3)
Format                      : MPEG Audio
Format version              : Version 1
Format profile              : Layer 2
Codec ID                    : 3
Duration                    : 47mn 51s
Bit rate mode               : Constant
Bit rate                    : 192 Kbps
Channel(s)                  : 2 channels
Sampling rate               : 48.0 KHz
Compression mode            : Lossy
Stream size                 : 65.7 MiB (5%)

Audio #2
ID                          : 45 (0x2D)
Menu ID                     : 3 (0x3)
Format                      : MPEG Audio
Format version              : Version 1
Format profile              : Layer 2
Mode                        : Joint stereo
Mode extension              : Intensity Stereo + MS Stereo
Codec ID                    : 3
Duration                    : 47mn 51s
Bit rate mode               : Constant
Bit rate                    : 192 Kbps
Channel(s)                  : 2 channels
Sampling rate               : 48.0 KHz
Compression mode            : Lossy
Stream size                 : 65.7 MiB (5%)
Качество: DVB
Формат: TS
Видео кодек: MPEG2
Аудио кодек: MP2
Видео: MPEG 2, 720x576 (16:9), 25.000 fps, 3 400 Kbps (0.328 bit/pixel)
Аудио: MP2, 48.0 KHz, 2 ch, 192 Kbps, CBR
Аудио 2: MP2, 48.0 KHz, 2 ch, 192 Kbps, CBR




У вас нет необходимых прав для просмотра вложений в этом сообщении.