Сообщение

Джейми Оливер. Сахарная лихорадка / Jamie's Sugar Rush [2015, Кулинарное шоу, DVB, RUS/ENG]

Сообщение Stepan » 19 сен 2016, 00:09

Джейми Оливер. Сахарная лихорадка / Jamie's Sugar Rush

Страна: Соединённое Королевство Великобритании и Северной Ирландии
Тематика: Кулинарное шоу
Тип раздаваемого материала: Кулинарное шоу
Продолжительность: 00:46:52
Год выпуска: 2015

Язык: Русский
Перевод: Профессиональный (многоголосый, закадровый)

Описание: Джейми Оливер возвращается с кампанией, посвященной исследованию сахарных добавок в пищу, которые негативно влияют на здоровье миллионов людей, и тому, как можно улучшить эту ситуацию. Эксперты предупреждают об опасности чрезмерного употребления сахара, сравнимого с употреблением алкоголя или курения и способствующего ожирению и появлению сахарного диабета 2 типа, разрушающего миллионы жизней.

Качество: DVB
Формат: TS
Видео кодек: MPEG2
Аудио кодек: MP2
Видео: MPEG 2, 720x576 (16:9), 25.000 fps, 3 000 Kbps (0.289 bit/pixel)
Аудио: MP2, 48.0 KHz, 2 ch, 192 Kbps, CBR
Аудио 2: MP2, 48.0 KHz, 2 ch, 192 Kbps, CBR
Код:
Код: Выделить всё
General
ID                          : 16 (0x10)
Complete name               : E:\Jamie\Jamie’s.sugar.rush.DVB.ts
Format                      : MPEG-TS
File size                   : 1.14 GiB
Duration                    : 46mn 52s
Overall bit rate mode       : Variable
Overall bit rate            : 3 489 Kbps

Video
ID                          : 41 (0x29)
Menu ID                     : 3 (0x3)
Format                      : MPEG Video
Format version              : Version 2
Format profile              : Main@Main
Format settings, BVOP       : Yes
Format settings, Matrix     : Custom
Format settings, GOP        : Variable
Format settings, picture st : Frame
Codec ID                    : 2
Duration                    : 46mn 52s
Bit rate mode               : Variable
Bit rate                    : 2 929 Kbps
Maximum bit rate            : 3 000 Kbps
Width                       : 720 pixels
Height                      : 576 pixels
Display aspect ratio        : 16:9
Frame rate                  : 25.000 fps
Standard                    : PAL
Color space                 : YUV
Chroma subsampling          : 4:2:0
Bit depth                   : 8 bits
Scan type                   : Interlaced
Scan order                  : Top Field First
Compression mode            : Lossy
Bits/(Pixel*Frame)          : 0.282
Time code of first frame    : 00:00:00:00
Time code source            : Group of pictures header
GOP, Open/Closed            : Open
Stream size                 : 982 MiB (84%)
Writing library             : (dvd5: Jun 16 2014)

Audio #1
ID                          : 44 (0x2C)
Menu ID                     : 3 (0x3)
Format                      : MPEG Audio
Format version              : Version 1
Format profile              : Layer 2
Mode                        : Joint stereo
Mode extension              : Intensity Stereo + MS Stereo
Codec ID                    : 3
Duration                    : 46mn 52s
Bit rate mode               : Constant
Bit rate                    : 192 Kbps
Channel(s)                  : 2 channels
Sampling rate               : 48.0 KHz
Compression mode            : Lossy
Stream size                 : 64.4 MiB (6%)

Audio #2
ID                          : 45 (0x2D)
Menu ID                     : 3 (0x3)
Format                      : MPEG Audio
Format version              : Version 1
Format profile              : Layer 2
Mode                        : Joint stereo
Mode extension              : Intensity Stereo + MS Stereo
Codec ID                    : 3
Duration                    : 46mn 52s
Bit rate mode               : Constant
Bit rate                    : 192 Kbps
Channel(s)                  : 2 channels
Sampling rate               : 48.0 KHz
Compression mode            : Lossy
Stream size                 : 64.4 MiB (6%)





Постеры

Соцсети

 

Статистика

Автор: Stepan
Добавлен: 19 сен 2016, 00:09
Размер: 1.14 ГБ
Размер: 1 226 691 540 байт
Сидеров: 7
Личеров: 2
Скачали: 0
Здоровье: 100%
Раздающих: 100%
Статус:
Скорость скачивания: 0 байт/сек
Скорость раздачи: 0 байт/сек
Последний сидер: 1 месяц 15 дней 1 час 32 минуты 29 секунд назад
Последний личер: 1 месяц 15 дней 1 час 32 минуты 29 секунд назад
Приватный: Нет (DHT включён)
Кулинария Скачать торрент
Скачать торрент
[ Размер 6.16 КБ / Просмотров 1 ]

Поделиться



Вернуться в Кулинария