Все будет вкусно! / Все буде смачно!, Выпуск 51-100 из ?? [2014, Кулинария, SATRip, RUS] (Видеоурок)

Рецепты салатов, закусок, мясных блюд, горячих напитков и сладких блюд
Торрент Сидеров Личеров Размер
torrent_4757714.torrent
10 3 36.4 ГБ
Аватара пользователя
Stepan
Администратор
Сообщения: 52267
Зарегистрирован: 05 ноя 2011, 20:36

Все будет вкусно! / Все буде смачно!, Выпуск 51-100 из ?? [2014, Кулинария, SATRip, RUS] (Видеоурок)

Сообщение Stepan » 19 сен 2016, 00:09



Все будет вкусно! / Все буде смачно!
Страна: Украина, "ММЦ" СТБ
Тематика: Кулинария
Тип раздаваемого материала: Видеоурок
Продолжительность: ~ 00:48:00
Год выпуска: 2014

Язык: Русский в некоторых выпусках частично присутствует Украинский!
Перевод: Не требуется
Ведущая: Надежда Матвеева

Описание: Шоу является собственной разработкой телеканала, благодаря которой каждый сможет научиться готовить или усовершенствует свои кулинарные навыки. Телепроект будет выходить каждую субботу и воскресенье в 09:00. Производством проекта занимается творческое объединение Дмитрия Кицая на СТБ (проект «Все буде добре»). «В нашем кулинарном проекте очень важно правильно показать зрителю волшебство кулинарного процесса во всех его деталях и красках, - поделился Дмитрий Кицай, - Поэтому впервые на телеканале СТБ в проекте «Все буде смачно!» мы использовали такие технологии, как slow motion и макросъемка, что бы максимально точно объяснить и показать процесс приготовления кулинарных. Экспертами проекта стали лучшие кулинары Украины – Эктор Хименес-Браво, Сергей Калинин, Татьяна Литвинова и Алла Ковальчук. Они вместе с ведущей Надеждой Матвеевой каждый выпуск программы будут обучать приглашенных звезд всем секретам и тонкостям кулинарного мастерства.

Доп. информация:
Выпуск 51: Роллы «Филадельфия»
Выпуск 52: Шашлык
Выпуск 53: Овощи гриль
Выпуск 54: Домашний ароматный хлеб
Выпуск 55: Мясная солянка
Выпуск 56: Куриные бедрышки
Выпуск 57: Ароматный кекс
Выпуск 58: Аппетитный говяжий язык
Выпуск 59: Мясо по-французски
Выпуск 60: Блюда из куриного филе
Выпуск 61: Разновидности штруделя
Выпуск 62: Ароматные и нежные клубничное и малиновое варенья
Выпуск 63: Три блюда из молодого картофеля
Выпуск 64: Эксклюзивный рецепт торта «Монастырская изба»
Выпуск 65: Три феерически вкусных блюда из куриных крылышек
Выпуск 66: Нежные маффины
Выпуск 67: Квас и окрошка
Выпуск 68: Хрустящие и душистые соленые огурцы
Выпуск 69: Три любимых блюда из кабачков
Выпуск 70: Салат «Цезарь» с Вустерским соусом
Выпуск 71: Три блюда из баклажанов
Выпуск 72: Мягкий и приятный самогон с идеальной закуской к нему
Выпуск 73: Уха и запеченный в соли карп
Выпуск 74: Душистая кукуруза всего за несколько минут
Выпуск 75: Нежное и сладкое мороженое
Выпуск 76: Абрикосовое варенье
Выпуск 77: Блюда из помидоров
Выпуск 78: Сладкие пончики
Выпуск 79: Шашлык из баранины
Выпуск 80: Летний компот
Выпуск 81: Колбаски из говядины и свинины
Выпуск 82: Цветная капуста
Выпуск 83: Вареные раки
Выпуск 84: Шарлотка
Выпуск 85: Рис
Выпуск 86: Три блюда из капусты
Выпуск 87: Печеночный торт
Выпуск 88: Фаршированные перцы
Выпуск 89: Невероятные блюда из гречки
Выпуск 90: Квашеная капуста
Выпуск 91: Хек
Выпуск 92: Разнообразные блюда из грибов
Выпуск 93: Удивительные блюда из куриных голеней
Выпуск 94: Беляши
Выпуск 95: Классический рассольник
Выпуск 96: Блюда из тушенки
Выпуск 97: Гороховый суп
Выпуск 98: Главный овощ сезона – тыква
Выпуск 99: Нежные слойки
Выпуск 100: Ароматный кофе
Качество: SATRip
Формат: AVI
Видео кодек: XviD
Аудио кодек: MP3
Видео: XviD, 720x400, 25.00fps, ~1850 Кбит/сек
Аудио: 48 kHz, MPEG Layer 3, 2 ch, 192.00 kbps
Общее
Полное имя : Y:\ТВ-Шоу 2014\«Все будет вкусно!» «2014» «ММЦ СТБ»\Vse budet vkusno!.(059.vupysk).(2014.06.01).2014.XviD.SATRip.simkanetua.avi
Формат : AVI
Формат/Информация : Audio Video Interleave
Размер файла : 749 Мбайт
Продолжительность : 51 м.
Общий поток : 2022 Кбит/сек
Программа кодирования : VirtualDubMod 1.5.10.3 | www.virtualdub-fr.org || (build 2550/release)
Библиотека кодирования : VirtualDubMod build 2550/release

Видео
Идентификатор : 0
Формат : MPEG-4 Visual
Профиль формата : Advanced Simple@L5
Параметр BVOP формата : 1
Параметр QPel формата : Нет
Параметр GMC формата : Без точки перехода
Параметр матрицы формата : Default (MPEG)
Идентификатор кодека : XVID
Идентификатор кодека/Подсказка : XviD
Продолжительность : 51 м.
Битрейт : 1821 Кбит/сек
Ширина : 720 пикселей
Высота : 400 пикселей
Соотношение сторон : 16:9
Частота кадров : 25,000 кадров/сек
Цветовое пространство : YUV
Субдискретизация насыщенности : 4:2:0
Битовая глубина : 8 бит
Тип развёртки : Прогрессивная
Метод сжатия : С потерями
Бит/(Пиксели*Кадры) : 0.253
Размер потока : 674 Мбайт (90%)
Библиотека кодирования : XviD 1.2.1 (UTC 2008-12-04)

Аудио
Идентификатор : 1
Формат : MPEG Audio
Версия формата : Version 1
Профиль формата : Layer 3
Режим : Joint stereo
Расширение режима : MS Stereo
Идентификатор кодека : 55
Идентификатор кодека/Подсказка : MP3
Продолжительность : 51 м.
Вид битрейта : Постоянный
Битрейт : 192 Кбит/сек
Каналы : 2 канала
Частота : 48,0 КГц
Метод сжатия : С потерями
Размер потока : 71,1 Мбайт (9%)
Выравнивание : Соединение по промежуткам
Продолжительность промежутка : 40 мс. (1,00 видеокадр)
Время предзагрузки промежутка : 504 мс.
Библиотека кодирования : LAME3.99r
Настройки программы : -m j -V 4 -q 2 -lowpass 18.6 -b 192
-------------
При каждом добавлении создаётся новый торрент. Чтобы начать докачку нового выпуска, пользователям необходимо сделать следующее:
● остановить скачивание;
● удалить старый торрент у себя из клиента (старые выпуски удалять не надо);
● скачать новый торрент и запустить его у себя в клиенте вместо старого, при этом указать клиенту путь в старую папку куда и должно происходить скачивание новых выпусков;
● ваш клиент при запуске должен произвести хеширование (проверку) старой папки (если не производит сам - помогите ему сделать это), и будет докачивать только те выпуски, которых у вас ещё нет. Старые выпуски при этом не удаляются, а продолжают раздаваться!
● Eсли вы уже удалили старые выпуски, то предотвратить повторную закачку старых выпусков можно, отжав галочку в соответсвующих местах при запуске нового торрента.
Выпуск 1-50:

Добавлен 76-й - 100-й Выпуск
У вас нет необходимых прав для просмотра вложений в этом сообщении.