Сообщение

Правила моей кухни 3 / My Kitchen Rules 3 (Серии 1-37 из 37) [2012, кулинария, IPTVRip, RUS]

Сообщение Stepan » 19 сен 2016, 00:10

Правила моей кухни 3 / My Kitchen Rules 3

Страна: Австралия
Тематика: кулинария
Тип раздаваемого материала: ТВ-шоу
Продолжительность: ~ 00:45:00 серия
Год выпуска: 2012
Язык: Русский
Перевод: Профессиональный (двухголосый)

Описание: Австралия. Штат против штата. Соревнующиеся команды борются за звание лучших поваров и за приз в двести пятьдесят тысяч австралийских долларов! Все, абсолютно все, здесь имеет значение: и вкус, и сервировка, и тончайшие вина! Ведущие, и они же наше уважаемое жюри, профессионалы в своем деле - Пит Эванс и Ману Филдел!

Качество: IPTVRip
Формат: AVI
Видео кодек: XviD
Аудио кодек: MP3

Video: Xvid 640x360 ~1150 Kbps 25fps 0.20 bit/pixel
Audio: MPEG Audio Layer 3 48000Hz stereo 128kbps
E:\Video\Com\mkr3\MKR_S3\MKR_S3E07.avi
General
Complete name : E:\Video\Com\mkr3\MKR_S3\MKR_S3E07.avi
Format : AVI
Format/Info : Audio Video Interleave
File size : 443 MiB
Duration : 48mn 1s
Overall bit rate : 1 290 Kbps
Writing application : VirtualDubMod 1.5.10.2 (build 2540/release)
Writing library : VirtualDubMod build 2540/release
Video #0
ID : 0
Format : MPEG-4 Visual
Format profile : Advanced Simple@L5
Format settings, BVOP : 1
Format settings, QPel : No
Format settings, GMC : No warppoints
Format settings, Matrix : Default (MPEG)
Codec ID : XVID
Codec ID/Hint : XviD
Duration : 48mn 1s
Bit rate : 1 152 Kbps
Width : 640 pixels
Height : 360 pixels
Display aspect ratio : 16:9
Frame rate : 25.000 fps
Color space : YUV
Chroma subsampling : 4:2:0
Bit depth : 8 bits
Scan type : Progressive
Compression mode : Lossy
Bits/(Pixel*Frame) : 0.200
Stream size : 396 MiB (89%)
Writing library : XviD 1.2.0.dev47 (UTC 2006-11-01)
Audio #1
ID : 1
Format : MPEG Audio
Format version : Version 1
Format profile : Layer 3
Codec ID : 55
Codec ID/Hint : MP3
Duration : 48mn 1s
Bit rate mode : Constant
Bit rate : 128 Kbps
Channel(s) : 2 channels
Sampling rate : 48.0 KHz
Compression mode : Lossy
Stream size : 44.0 MiB (10%)
Alignment : Aligned on interleaves
Interleave, duration : 40 ms (1.00 video frame)
Interleave, preload duration : 504 ms
Writing library : LAME3.97
Encoding settings : -m s -V 4 -q 2 -lowpass 17 -b 128

Постеры

Соцсети

 

Статистика

Автор: Stepan
Добавлен: 19 сен 2016, 00:10
Размер: 16.72 ГБ
Размер: 17 957 576 704 байт
Сидеров: 9
Личеров: 3
Скачали: 0
Здоровье: 100%
Раздающих: 100%
Статус:
Скорость скачивания: 0 байт/сек
Скорость раздачи: 0 байт/сек
Последний сидер: 25 дней 2 часа 9 минут 11 секунд назад
Последний личер: 25 дней 2 часа 9 минут 11 секунд назад
Приватный: Нет (DHT включён)
Кулинария Скачать торрент
Скачать торрент
[ Размер 85.67 КБ / Просмотров 0 ]

Поделиться



  • Похожие торренты
    Ответы
    Просмотры
    Последнее сообщение

Вернуться в Кулинария