Сообщение

Правила моей кухни 3 / My Kitchen Rules 3 (37 выпусков) [2012, кулинария, IPTVRip](ТВ-шоу)

Сообщение Stepan » 19 сен 2016, 00:10

Правила моей кухни 3 / My Kitchen Rules 3

Страна: Австралия
Тематика: кулинария
Тип раздаваемого материала: ТВ-шоу
Продолжительность: ~00:45:00 серия
Год выпуска: 2012
Язык: Русский
Перевод: Профессиональный (двухголосый)

Описание: Австралия. Штат против штата. Соревнующиеся команды борются за звание лучших поваров и за приз в двести пятьдесят тысяч австралийских долларов! Все, абсолютно все, здесь имеет значение: и вкус, и сервировка, и тончайшие вина! Ведущие, и они же наше уважаемое жюри, профессионалы в своем деле - Пит Эванс и Ману Филдел!

Качество: IPTVRip
Формат: MPEG-PS
Видео кодек: MPEG1
Аудио кодек: MP2
Видео: 480х576@712х576, ~1476 Кбит/сек, 29,970 кадров/сек
Аудио: 44,1 КГц, 224 Кбит/сек, 2 канала
Общее
Полное имя : F:\PMK3\Серия 01.mpg
Формат : MPEG-PS
Размер файла : 678 Мбайт
Продолжительность : 54 м.
Режим общего битрейта : Переменный
Общий поток : 1734 Кбит/сек

Видео
Идентификатор : 224 (0xE0)
Формат : MPEG Video
Версия формата : Version 1
Параметр BVOP формата : Нет
Параметр матрицы формата : По умолчанию
Параметр GOP формата : N=12
Продолжительность : 54 м.
Вид битрейта : Переменный
Битрейт : 1476 Кбит/сек
Ширина : 480 пикселей
Высота : 576 пикселей
Соотношение сторон : 5:4
Частота кадров : 29,970 кадров/сек
Цветовое пространство : YUV
Субдискретизация насыщенности : 4:2:0
Битовая глубина : 8 бит
Тип развёртки : Прогрессивная
Метод сжатия : С потерями
Бит/(Пиксели*Кадры) : 0.178
Временной код первого кадра : 00:00:00:00
Оригинал временного кода : Group of pictures header
Размер потока : 577 Мбайт (85%)

Аудио
Идентификатор : 192 (0xC0)
Формат : MPEG Audio
Версия формата : Version 1
Профиль формата : Layer 2
Продолжительность : 54 м.
Вид битрейта : Постоянный
Битрейт : 224 Кбит/сек
Каналы : 2 канала
Частота : 44,1 КГц
Метод сжатия : С потерями
Размер потока : 87,6 Мбайт (13%)

Внимание! Это уполовиненная версия вот этой раздачи: Качество ужасное!

Постеры

Соцсети

 

Статистика

Автор: Stepan
Добавлен: 19 сен 2016, 00:10
Размер: 22.48 ГБ
Размер: 24 136 734 720 байт
Сидеров: 3
Личеров: 1
Скачали: 0
Здоровье: 100%
Раздающих: 100%
Статус:
Скорость скачивания: 0 байт/сек
Скорость раздачи: 0 байт/сек
Последний сидер: 14 дней 41 минуту 21 секунду назад
Последний личер: 14 дней 41 минуту 21 секунду назад
Приватный: Нет (DHT включён)
Кулинария Скачать торрент
Скачать торрент
[ Размер 58.39 КБ / Просмотров 0 ]

Поделиться



Вернуться в Кулинария