Сообщение

G'астрономы [2009 - 2013, Kулинария / Документальный фильм , SATRip, RUS] (Видеоурок)

Сообщение Stepan » 19 сен 2016, 00:11

G'астрономы

Страна: Россия
Тематика: Kулинария / Документальный фильм
Тип раздаваемого материала: Видеоурок
Продолжительность: ~00:38:00
Год выпуска: 2009 - 2013

Язык: Русский
Перевод: Не требуется

Описание: «G`астрономы» программа о тех, кто не только получил звезды Мишлен, но своей по-настоящему "звездной" кухней занял достойное место в ряду звездных шефов с мировым именем.

Это программа о тех, кто своей «гастрономической» планкой дотянулся до небес, став не просто Гастрономом, но G’астрономом.

Каждая программа из цикла «G`астрономы» — это фильм-портрет признанного шеф-повара, где во главе угла ставится персона повара, его человеческие качества, позволившие ему добиться успеха и признания. Самые известные повара мира — Хестон Блюменталь, Хуан Мария Арзак, Хайнц Винклер и многие другие — расскажут о своей жизни и о том, благодаря или вопреки чему они вошли в мир высокой кухни. Зрителей ждет встреча и с российскими шеф-поварами и рестораторами: Андреем Деллосом, хозяином ресторанов «Пушкин» и «Турандот»; Анатолием Коммом, начавшим одним из первых практиковать в России новое направлении молекулярной кулинарии; Аркадием Новиковым и другими.

В интервью известные повара расскажут зрителям о своей жизненной философии, благодаря или вопреки чему они стали гуру в мире гастрономии, чем увлекаются в свободное время и как их увлечения отражаются на творчестве.

Релиз:
Tarjaa


Содержание:
G'астрономы. Джейми Оливер. 2009
G'астрономы. Илья Лазерсон. 2009
G'астрономы. Хайнц Винклер. 2009
G'астрономы. Филипп Парк. 2010
G'астрономы. Педро Субихана. 2010
G'астрономы. Зума. 2010
G'астрономы. Арзак. 1 - 2 ч. 2010
G'астрономы. Мартин Берасатеги. 2010
G'астрономы. Элвин Леунг. 2011
G'астрономы. Дмитрий Шуршаков. 2013
G'астрономы. Анатолий Комм. 2009
G'астрономы. Андрей Делос. 2011
G'астрономы. Дель Серро. 2009
G'астрономы. Луиш Баена. 2009
G'астрономы. Ферран Адриа. 2012
G'астрономы. Хестон Блюменталь, 1 -3 ч. 2010
MediaInfo:
General
Complete name : G'астрономы\G'астрономы. Элвин Леунг..avi
Format : AVI
Format/Info : Audio Video Interleave
File size : 294 MiB
Duration : 23mn 37s
Overall bit rate : 1 738 Kbps
Writing application : VirtualDubMod 1.5.10.3 | www.virtualdub-fr.org || (build 2550/release)
Writing library : VirtualDubMod build 2550/release

Video
ID : 0
Format : MPEG-4 Visual
Format profile : Advanced Simple@L5
Format settings, BVOP : 1
Format settings, QPel : No
Format settings, GMC : No warppoints
Format settings, Matrix : Default (H.263)
Codec ID : XVID
Codec ID/Hint : XviD
Duration : 23mn 37s
Bit rate : 1 600 Kbps
Width : 704 pixels
Height : 528 pixels
Display aspect ratio : 4:3
Frame rate : 25.000 fps
Color space : YUV
Chroma subsampling : 4:2:0
Bit depth : 8 bits
Scan type : Progressive
Compression mode : Lossy
Bits/(Pixel*Frame) : 0.172
Stream size : 270 MiB (92%)
Writing library : XviD 1.2.1 (UTC 2008-12-04)

Audio
ID : 1
Format : MPEG Audio
Format version : Version 1
Format profile : Layer 3
Codec ID : 55
Codec ID/Hint : MP3
Duration : 23mn 37s
Bit rate mode : Constant
Bit rate : 128 Kbps
Channel count : 2 channels
Sampling rate : 48.0 KHz
Compression mode : Lossy
Stream size : 21.6 MiB (7%)
Alignment : Aligned on interleaves
Interleave, duration : 40 ms (1.00 video frame)
Interleave, preload duration : 504 ms
Writing library : LAME3.98r
Encoding settings : -m s -V 4 -q 2 -lowpass 17 -b 128

General
Complete name : G'астрономы\G'астрономы. Педро Субихана..avi
Format : AVI
Format/Info : Audio Video Interleave
File size : 412 MiB
Duration : 34mn 26s
Overall bit rate : 1 673 Kbps
Writing application : VirtualDubMod 1.5.10.3 | www.virtualdub-fr.org || (build 2550/release)
Writing library : VirtualDubMod build 2550/release

Video
ID : 0
Format : MPEG-4 Visual
Format profile : Advanced Simple@L5
Format settings, BVOP : 1
Format settings, QPel : No
Format settings, GMC : No warppoints
Format settings, Matrix : Default (H.263)
Codec ID : XVID
Codec ID/Hint : XviD
Duration : 34mn 26s
Bit rate : 1 535 Kbps
Width : 704 pixels
Height : 400 pixels
Display aspect ratio : 16:9
Frame rate : 25.000 fps
Color space : YUV
Chroma subsampling : 4:2:0
Bit depth : 8 bits
Scan type : Progressive
Compression mode : Lossy
Bits/(Pixel*Frame) : 0.218
Stream size : 378 MiB (92%)
Writing library : XviD 1.2.1 (UTC 2008-12-04)

Audio
ID : 1
Format : MPEG Audio
Format version : Version 1
Format profile : Layer 3
Codec ID : 55
Codec ID/Hint : MP3
Duration : 34mn 26s
Bit rate mode : Constant
Bit rate : 128 Kbps
Channel count : 2 channels
Sampling rate : 48.0 KHz
Compression mode : Lossy
Stream size : 31.5 MiB (8%)
Alignment : Aligned on interleaves
Interleave, duration : 40 ms (1.00 video frame)
Interleave, preload duration : 504 ms
Writing library : LAME3.98r
Encoding settings : -m s -V 4 -q 2 -lowpass 17 -b 128
Качество: SATRip
Формат: AVI
Видео кодек: XviD
Аудио кодек: MP3
Видео: Xvid 704x528 / 720x400 25.00fps Bit rate:~ 1600 Kbps
Аудио: MPEG Audio Layer 3 48000Hz stereo 2 ch, ~ 128 Кбит/с [Stream 01]
Добавлены 4 новых выпускa
перезалейте торрент

Постеры

Соцсети

 

Статистика

Автор: Stepan
Добавлен: 19 сен 2016, 00:11
Размер: 8 ГБ
Размер: 8 590 555 136 байт
Сидеров: 1
Личеров: 0
Скачали: 0
Здоровье: 100%
Раздающих: 100%
Статус:
Скорость скачивания: 0 байт/сек
Скорость раздачи: 0 байт/сек
Последний сидер: 19 дней 5 часов 17 минут 21 секунду назад
Последний личер: Нет
Приватный: Нет (DHT включён)
Кулинария Скачать торрент
Скачать торрент
[ Размер 42 КБ / Просмотров 0 ]

Поделиться



Вернуться в Кулинария