Джейми Оливер. Готовим за 30 минут / Jamie’s 30 minute meals. Сезон 1 (1-20 из 20), Сезон 2 (1-20 из 20) [2010, Кулинарное шоу, DVB, RUS/ENG]

Рецепты салатов, закусок, мясных блюд, горячих напитков и сладких блюд
Торрент Сидеров Личеров Размер
torrent_4549622.torrent
29 10 19.51 ГБ
Аватара пользователя
Stepan
Администратор
Сообщения: 52388
Зарегистрирован: 05 ноя 2011, 20:36

Джейми Оливер. Готовим за 30 минут / Jamie’s 30 minute meals. Сезон 1 (1-20 из 20), Сезон 2 (1-20 из 20) [2010, Кулинарное шоу, DVB, RUS/ENG]

Сообщение Stepan » 19 сен 2016, 00:11

Джейми Оливер. Готовим за 30 минут / Jamie’s 30 minute meals

Страна: Великобритания
Тематика: Кулинарное шоу
Тип раздаваемого материала: Видеоурок
Продолжительность: 00:23:43
Год выпуска: 2010
Язык: Русский + Английский
Перевод: Профессиональный (одноголосый) - FoxLife



Описание: Очередное кулинарное шоу с гением кулинарии Джейми Оливером. Здесь он демонстрирует как приготовить полноценный, вкусный обед завтрак или ужин за время меньшее чем понадобится на доставку пиццы. Джейми Оливер не остепенился даже после женитьбы и рождения второй дочки. Он поселился в графстве Эссекс, где провел все свое детство, и вплотную занялся выращиванием овощей и фруктов на собственном участке. Джейми и здесь добился успеха, как он сам признается, выращивание собственного урожая приносит ему море радости.На этот раз научит как приготовить вкусный и сытный обед всего за 30 минут. Джейми Оливер экономит наше время. Для наиболее занятых людей, у которых нет времени долго стоять у плиты после длинного рабочего дня. Знаменитый англичанин учит нас, как потратить на приготовление целого обеда не больше получаса, не жертвуя качеством блюд.
Демократичность - одно из основных достоинств кухни Оливера. Рецепты своих блюд он проверял на собственной жене. «Мнение Джулс очень помогает мне сделать так, чтобы рецепты были доступны каждому, - если она может с ними справиться, значит, сможете и вы», - сообщает Джейми в одной из своих книг. И, хотя на месте его жены я бы обиделась, ссылка на неумеху Джулс весьма ободряет всех остальных неумех.
Эпизод 1 Цыпленок пири-пири, пюре из сладкого картофеля, пироженные с кремом покрытые карамелью.
Эпизод 2 Тайские Красные креветки Карри
Эпизод 3 Говяжье филе с травами, печеный кортофель с овощами, йоркширский пудинг.
Эпизод 4 Запеканка со шпинатом и фетой, салат из помидор, шарики ванильного мороженого обсыпанные кофе.
Эпизод 5 Паста
Эпизод 6 Вегетарианское карри, хлеб с имбирем, рис с ароматом гвоздики.
Эпизод 7 Утка с хрустящей корочкой, салат с гранатом, рисовый пудинг с фруктами.
Эпизод 8 Ризотто с грибами, салат из огруца, домашний чизкейк с имбирный печеньем.
Эпизод 9 Хрустящий стейк и жареный картофель
Эпизод 10 Пирог с курицей
Эпизод 11 Запеченная рыба
Эпизод 12 Макароны с сыром и цветной капустой посыпанные беконом и тертыми сухарями, салат из красного цекория и базилика заправленый соусом, запеченые с бренди фрукты и ванильное мороженое.
Эпизод 13 Два Салата
Эпизод 14 Марокканская кухня
Эпизод 15 Морского окуня и Хрустящие панчетта
Эпизод 16 Овощная Лазанья
Эпизод 17 Кукурузная похлебка
Эпизод 18 Ассорти с сосисками чиполата
Эпизод 19 Лосось с хрустящей корочкой, салат из ростков фасоли с манго, суп с лапшой.
Эпизод 20 Курица в остром соусе
Эпизод 21 Лапша и овощи
Эпизод 22 Зелёный карри с курицей
Эпизод 23 Спагетти потанеска
Эпизод 24 Испанское ассарти
Эпизод 25 Говяжье рагу
Эпизод 26 Ребра ягненка и салат из летних овощей
Эпизод 27 Курица с Картофелем Дефенуа
Эпизод 28 Паста и Тирамису
Эпизод 29 Гребешки по восточному
Эпизод 30 Домашняя пицца
Эпизод 31 Запеченный лосось, салат из кабачков, рисовый салат.
Эпизод 32 Паста тальятелле
Эпизод 33 Жареная курица по-киприотски
Эпизод 34 Сосиски в тесте
Эпизод 35 Сардины с перцем чили
Эпизод 36 Кари
Эпизод 37 Рыбные палочки
Эпизод 38 Куриный Шашлык
Эпизод 39 Паста и два салата
Эпизод 40 Лосось с кресс-салатом
Доп. информация:

Чистая запись с канала FoxLife без перекодирования.

Качество: DVB
Формат: MPG / TS
Видео кодек: MPEG2
Аудио кодек: MP2
Видео: MPEG 2, 720x576 (16:9), 25.000 fps, 2 406 Kbps (0.232 bit/pixel)
Аудио: MPEG Audio 48000Hz stereo 192kbps [Audio] [RU]
Аудио 2: MPEG Audio 48000Hz stereo 192kbps [Audio] [ENG]
Код:

Код: Выделить всё

General
ID                                       : 16 (0x10)
Complete name                            : E:\30 min\Jamies.30.Minute.Meals.epizod.01.Piri.Piri.Chicken.DVB.mpg
Format                                   : MPEG-TS
File size                                : 499 MiB
Duration                                 : 23mn 43s
Overall bit rate mode                    : Variable
Overall bit rate                         : 2 939 Kbps

Video
ID                                       : 76 (0x4C)
Menu ID                                  : 1 (0x1)
Format                                   : MPEG Video
Format version                           : Version 2
Format profile                           : Main@Main
Format settings, BVOP                    : Yes
Format settings, Matrix                  : Custom
Format settings, GOP                     : Variable
Codec ID                                 : 2
Duration                                 : 23mn 43s
Bit rate mode                            : Variable
Bit rate                                 : 2 406 Kbps
Maximum bit rate                         : 15.0 Mbps
Width                                    : 720 pixels
Height                                   : 576 pixels
Display aspect ratio                     : 16:9
Frame rate                               : 25.000 fps
Standard                                 : PAL
Color space                              : YUV
Chroma subsampling                       : 4:2:0
Bit depth                                : 8 bits
Scan type                                : Interlaced
Scan order                               : Top Field First
Compression mode                         : Lossy
Bits/(Pixel*Frame)                       : 0.232
Time code of first frame                 : 00:00:00:00
Time code source                         : Group of pictures header
Stream size                              : 408 MiB (82%)

Audio #1
ID                                       : 73 (0x49)
Menu ID                                  : 1 (0x1)
Format                                   : MPEG Audio
Format version                           : Version 1
Format profile                           : Layer 2
Codec ID                                 : 3
Duration                                 : 23mn 43s
Bit rate mode                            : Constant
Bit rate                                 : 192 Kbps
Channel count                            : 2 channels
Sampling rate                            : 48.0 KHz
Compression mode                         : Lossy
Stream size                              : 32.6 MiB (7%)

Audio #2
ID                                       : 74 (0x4A)
Menu ID                                  : 1 (0x1)
Format                                   : MPEG Audio
Format version                           : Version 1
Format profile                           : Layer 2
Codec ID                                 : 3
Duration                                 : 23mn 43s
Bit rate mode                            : Constant
Bit rate                                 : 192 Kbps
Channel count                            : 2 channels
Sampling rate                            : 48.0 KHz
Compression mode                         : Lossy
Stream size                              : 32.6 MiB (7%)




У вас нет необходимых прав для просмотра вложений в этом сообщении.