Сообщение

Улица объедения (1-2 сезоны: 1-26 серии из 26) / Eat St. (Eat Street) [2011 - 2012, тв-передача, кулинария, SATRip, RUS] (Видеоурок)

Сообщение Stepan » 19 сен 2016, 00:11

Улица объедения (1-2 сезоны: 1-26 серии из 26) / Eat St. (Eat Street)

Страна: США
Тематика: тв-передача, кулинария
Тип раздаваемого материала: Видеоурок
Продолжительность: 26 x ~ 00:22:00
Год выпуска: 2011 - 2012

Язык: Русский
Перевод: Профессиональный (двухголосый)

Описание: Самый вкусный и тяжелый фаст-фуд в мире сосредоточен в Северной Америке: от пицц, испеченных в переносной каменной печи, до классических хот-догов с множеством ингредиентов и сочных бургеров. Настоящие звезды Соединенных Штатов — это продавцы фаст-фуда, они творят чудеса с едой в своих магазинах–фургонах и рассказывают невероятно интересные истории из жизни. Программа «Улица объедения» раскроет секреты, где можно попробовать лучший в мире фаст-фуд!

Релиз:
Tarjaa


MediaInfo:
General
Complete name : Eat St.(Eat Street )\Eat St.(Eat Street ) S.1_2011\Eat St.sz1.v.08.Barbeque This!_Tarjaa.avi
Format : AVI
Format/Info : Audio Video Interleave
File size : 259 MiB
Duration : 21mn 29s
Overall bit rate : 1 688 Kbps
Writing application : VirtualDubMod 1.5.10.3 | www.virtualdub-fr.org || (build 2550/release)
Writing library : VirtualDubMod build 2550/release

Video
ID : 0
Format : MPEG-4 Visual
Format profile : Advanced Simple@L5
Format settings, BVOP : 1
Format settings, QPel : No
Format settings, GMC : No warppoints
Format settings, Matrix : Default (H.263)
Codec ID : XVID
Codec ID/Hint : XviD
Duration : 21mn 29s
Bit rate : 1 550 Kbps
Width : 704 pixels
Height : 400 pixels
Display aspect ratio : 16:9
Frame rate : 25.000 fps
Color space : YUV
Chroma subsampling : 4:2:0
Bit depth : 8 bits
Scan type : Progressive
Compression mode : Lossy
Bits/(Pixel*Frame) : 0.220
Stream size : 238 MiB (92%)
Writing library : XviD 1.2.1 (UTC 2008-12-04)

Audio
ID : 1
Format : MPEG Audio
Format version : Version 1
Format profile : Layer 3
Codec ID : 55
Codec ID/Hint : MP3
Duration : 21mn 29s
Bit rate mode : Constant
Bit rate : 128 Kbps
Channel(s) : 2 channels
Sampling rate : 48.0 KHz
Compression mode : Lossy
Stream size : 19.7 MiB (8%)
Alignment : Aligned on interleaves
Interleave, duration : 40 ms (1.00 video frame)
Interleave, preload duratio : 504 ms
Writing library : LAME3.98r
Encoding settings : -m s -V 4 -q 2 -lowpass 17 -b 128
Качество: SATRip
Формат: AVI
Видео кодек: XviD
Аудио кодек: MP3
Видео: Xvid 704x400 25fps 1549kbps [V: mpeg4 advanced simple profile, yuv420p, 704x400, 1549 kb/s
Аудио: MP3 48000Hz stereo 128kbps [A: mp3, 48000 Hz, stereo, 128 kb/s]

Постеры

Соцсети

 

Статистика

Автор: Stepan
Добавлен: 19 сен 2016, 00:11
Размер: 6.66 ГБ
Размер: 7 145 936 896 байт
Сидеров: 5
Личеров: 1
Скачали: 0
Здоровье: 100%
Раздающих: 100%
Статус:
Скорость скачивания: 0 байт/сек
Скорость раздачи: 0 байт/сек
Последний сидер: 5 дней 15 часов 36 минут 34 секунды назад
Последний личер: 5 дней 15 часов 36 минут 34 секунды назад
Приватный: Нет (DHT включён)
Кулинария Скачать торрент
Скачать торрент
[ Размер 36.43 КБ / Просмотров 1 ]

Поделиться



  • Похожие торренты
    Ответы
    Просмотры
    Последнее сообщение

Вернуться в Кулинария