Сообщение

Правила моей кухни 5 / My Kitchen Rules 5 (1-48 серии из 48) [2014, PDTVRip, RUS]

Сообщение Stepan » 19 сен 2016, 00:11

Правила моей кухни 5 / My Kitchen Rules 5

Страна: Австралия
Тип раздаваемого материала: ТВ-шоу
Продолжительность: 48 х ~ 00:50:00
Год выпуска: 2014

Язык: Русский
Перевод: Профессиональный (двухголосый)

Описание: Австралия. Штат против штата. Соревнующиеся команды борются за звание лучших поваров и за приз в двести пятьдесят тысяч австралийских долларов! Все, абсолютно все, здесь имеет значение: и вкус, и сервировка, и тончайшие вина! Ведущие, и они же наше уважаемое жюри, профессионалы в своем деле - Пит Эванс и Ману Филдел!
Шоу было создано австралийским "Седьмым каналом", после успеха австралийской версии шоу "Мастершеф" на "Десятом канале".
Доп. информация: Релиз создан путем прикручивания к видео с австралийского рипа, найденного в сети, русской озвучки от канала "SET".

Качество: PDTVRip
Формат: AVI
Видео кодек: XviD
Аудио кодек: MP3
Видео: Xvid, 640x352(16/9), 25fps, ~ 1 100 Kbps
Аудио: MP3, 48000Hz, stereo, 128kbps

22.07.2014 Торрент-файл перезалит! Добавлен сорок восьмой(финальный) эпизод.
Внимание! Раздача ведётся путём добавления новых серий; при каждом добавлении создётся новый торрент. Чтобы начать докачку новой серии, пользователям необходимо сделать следующее:
(1) остановить скачивание,
(2) удалить старый торрент у себя из клиента (старые серии удалять не надо),
(3) скачать новый торрент и запустить его у себя в клиенте вместо старого, при этом указать клиенту путь в старую папку куда и должно происходить скачивание новых серий.
Ваш клиент при этом должен произвести хеширование (проверку) старой папки (если не производит сам - помогите ему сделать это), и будет докачивать только те серии которых у вас ещё нет. Старые серии при этом не удаляются, а продолжают раздаваться!
Eсли вы уже удалили старые серии, то предотвратить повторную закачку старых серий можно, отжав галочку в соответсвующих местах при запуске нового торрента. По возможности, желательно не удалять старые серии как можно дольше чтобы релизёр не столько продолжал раздавать старые серии, а смог сконцентрироваться на новых.
General
Complete name : E:\Serial\ПМК 5\My.Kitchen.Rules.AU.s05e01.rus.avi
Format : AVI
Format/Info : Audio Video Interleave
File size : 947 MiB
Duration : 1h 14mn
Overall bit rate : 1 773 Kbps
Writing application : VirtualDubMod 1.5.4.1 (build 2178/release)
Writing library : VirtualDubMod build 2178/release

Video
ID : 0
Format : MPEG-4 Visual
Format profile : Advanced Simple@L5
Format settings, BVOP : 2
Format settings, QPel : No
Format settings, GMC : No warppoints
Format settings, Matrix : Default (H.263)
Codec ID : XVID
Codec ID/Hint : XviD
Duration : 1h 14mn
Bit rate : 1 636 Kbps
Width : 640 pixels
Height : 352 pixels
Display aspect ratio : 16:9
Frame rate : 25.000 fps
Color space : YUV
Chroma subsampling : 4:2:0
Bit depth : 8 bits
Scan type : Progressive
Compression mode : Lossy
Bits/(Pixel*Frame) : 0.290
Stream size : 873 MiB (92%)
Writing library : XviD 1.2.1 (UTC 2008-12-04)

Audio
ID : 1
Format : MPEG Audio
Format version : Version 1
Format profile : Layer 3
Mode : Joint stereo
Mode extension : MS Stereo
Codec ID : 55
Codec ID/Hint : MP3
Duration : 1h 14mn
Bit rate mode : Constant
Bit rate : 128 Kbps
Channel(s) : 2 channels
Sampling rate : 48.0 KHz
Compression mode : Lossy
Stream size : 68.4 MiB (7%)
Alignment : Aligned on interleaves
Interleave, duration : 40 ms (1.00 video frame)
Interleave, preload duration : 504 ms
Writing library : LAME3.99r
Encoding settings : -m j -V 4 -q 2 -lowpass 17 -b 128

Постеры

Соцсети

 

Статистика

Автор: Stepan
Добавлен: 19 сен 2016, 00:11
Размер: 24.95 ГБ
Размер: 26 788 536 320 байт
Сидеров: 23
Личеров: 8
Скачали: 0
Здоровье: 100%
Раздающих: 100%
Статус:
Скорость скачивания: 0 байт/сек
Скорость раздачи: 0 байт/сек
Последний сидер: 1 день 15 часов 56 минут 26 секунд назад
Последний личер: 1 день 15 часов 56 минут 26 секунд назад
Приватный: Нет (DHT включён)
Кулинария Скачать торрент
Скачать торрент
[ Размер 66.42 КБ / Просмотров 0 ]

Поделиться



Вернуться в Кулинария