Sadie Nardini / Сэди Нардини - Йога в движении [2014, йога, фитнес, SATRip, RUS] (Видеоурок)

Торрент Сидеров Личеров Размер
torrent_4772341.torrent
0 0 2.86 ГБ
Аватара пользователя
Stepan
Администратор
Сообщения: 52388
Зарегистрирован: 05 ноя 2011, 20:36

Sadie Nardini / Сэди Нардини - Йога в движении [2014, йога, фитнес, SATRip, RUS] (Видеоурок)

Сообщение Stepan » 19 сен 2016, 00:25

Йога в движении
Sadie Nardini / Сэди Нардини
Год выпуска: 2014
Страна: США, ТК "Veria" / Россия, ТК "Живи!"
Жанр: йога, фитнес
Продолжительность: 00:41:46
Язык: Русский
Описание: По будням зарядиться энергией на целый день поможет Сэди Нардини / Sadie Nardini, которая привнесла свой неповторимый колорит в занятия йогой. Больше задора! Смотрите в июне на телеканале Живи!
«Единственная красота, которую я знаю, – это здоровье», – говаривал великий Гейне. Сегодня внимание телезрителей заостряется на канале о здоровом образе жизни VERIA – мировом бренде, детище корпорации ZEEL (ZEE Entertainment Enterprises Ltd.).
Американский телеканал Veria Living TV в 2013 году начал вещание в России. Этот канал направлен на стимулирование здорового образа жизни. Veria предлагает развлечения, стиль жизни, приготовление пищи (с акцентом на здоровое приготовление пищи), спорт и путешествия. Veria Living TV планирует вещающие на русском языке в формате высокой четкости (HDTV) в сотрудничестве с широко известным ЖиВи ТВ.
Сэмпл >>>
Качество: SATRip
Формат: AVI

Видео: 688x384 (1.79:1), 25 fps, XviD ~1367 kbps avg, 0.21 bit/pixel
Аудио: 48 kHz, MPEG Layer 3, 2 ch, ~128.00 kbps
1 неделя
01 Просыпаемся вместе с йогой
02 Йога 101
03 Без паники!
04 Йога губка
05 Я не могу заснуть

2 неделя
06 Маленькое черное платье - МЧП йога
07 Сжигание калорий
08 Источник смелости
09 Расслабься!
10 Не сегодня, милый!
Реклама удалена
VERIA: мир красоты и здоровья
«Единственная красота, которую я знаю, – это здоровье», – говаривал великий Гейне. Сегодня внимание телезрителей заостряется на канале о здоровом образе жизни VERIA – мировом бренде, детище корпорации ZEEL (ZEE Entertainment Enterprises Ltd.).
VERIA (распространяется на платформе канала «ЖИВИ») – это более 50 программ от ведущих специалистов в области фитнеса, питания, здоровья, красоты и воспитания детей. VERIA – это ежедневно 4,5 часа оригинального контента Голливуда, а также программы собственного производства.
Авторы канала о его концепции говорят так: «Мы создаем мир красоты и здоровья, в котором не просто рассказываем о полноценной жизни без болезней, но и учим, как правильно вести здоровый образ жизни. Миссия бренда – искренно и вдохновенно рассказывать о преимуществах здорового образа жизни во всех его проявлениях».
Увлеченность создателей VERIA пробуждает стремление учиться, желание быть здоровым и счастливым.
Важно: VERIA предоставляет только тщательно проверенную информацию. Гарантируется оригинальность и содержательность программ, призванных покорить сердце каждого зрителя. Оригинальность VERIA в том, что канал формирует правильное восприятие, предлагая новые, оригинальные ответы на общие вопросы. Возникает честный и прямой разговор, при котором затрагиваются самые разные темы.
Зона охвата канала – вся территория Российской Федерации, страны СНГ и Балтии. В большей степени VERIA ориентирован на женщин 18–45 лет со средним и высоким уровнем дохода, желающих изменить свой образ жизни, улучшить физическую форму. Здоровье никогда не может потерять своей ценности в глазах человека, потому что и в довольстве, и в роскоши жить без здоровья плохо. Здоровый образ жизни складывается из многого.

Код: Выделить всё

General
Complete name                            : Yoga.v,dvizhenii - Sadie Nardini.avi
Format                                   : AVI
Format/Info                              : Audio Video Interleave
File size                                : 450 MiB
Duration                                 : 41mn 46s
Overall bit rate                         : 1 505 Kbps
Writing application                      : VirtualDubModRus 1.5.10.2 (build 2542/release)
Writing library                          : VirtualDubMod build 2542/release

Video
ID                                       : 0
Format                                   : MPEG-4 Visual
Format profile                           : Advanced Simple@L5
Format settings, BVOP                    : 2
Format settings, QPel                    : No
Format settings, GMC                     : No warppoints
Format settings, Matrix                  : Custom
Muxing mode                              : Packed bitstream
Codec ID                                 : XVID
Codec ID/Hint                            : XviD
Duration                                 : 41mn 46s
Bit rate                                 : 1 367 Kbps
Width                                    : 688 pixels
Height                                   : 384 pixels
Display aspect ratio                     : 16:9
Frame rate                               : 25.000 fps
Color space                              : YUV
Chroma subsampling                       : 4:2:0
Bit depth                                : 8 bits
Scan type                                : Progressive
Compression mode                         : Lossy
Bits/(Pixel*Frame)                       : 0.207
Stream size                              : 409 MiB (91%)
Writing library                          : XviD 65

Audio
ID                                       : 1
Format                                   : MPEG Audio
Format version                           : Version 1
Format profile                           : Layer 3
Codec ID                                 : 55
Codec ID/Hint                            : MP3
Duration                                 : 41mn 46s
Bit rate mode                            : Constant
Bit rate                                 : 128 Kbps
Channel count                            : 2 channels
Sampling rate                            : 48.0 KHz
Compression mode                         : Lossy
Stream size                              : 38.2 MiB (9%)
Alignment                                : Aligned on interleaves
Interleave, duration                     : 40 ms (1.00 video frame)
Interleave, preload duration             : 504 ms
Спасибо shev4ik, bara77 и Solovushka за исходники!Релиз от группы
У вас нет необходимых прав для просмотра вложений в этом сообщении.