Фитнес-календарь. Неделя Востока [2008, фитнес, оздоровительные практики, ушу, DVDRip, RUS] (Видеоурок)

Торрент Сидеров Личеров Размер
torrent_4707603.torrent
0 0 957.63 МБ
Аватара пользователя
Stepan
Администратор
Сообщения: 52270
Зарегистрирован: 05 ноя 2011, 20:36

Фитнес-календарь. Неделя Востока [2008, фитнес, оздоровительные практики, ушу, DVDRip, RUS] (Видеоурок)

Сообщение Stepan » 19 сен 2016, 00:27

#7Фитнес-календарь. Неделя Востока. Ушу

Страна: Россия
Тематика: Ушу (Чанцюань)
Тип раздаваемого материала: Видеоурок
Продолжительность: 01:14:00
Год выпуска: 2008

Язык: Русский
Перевод: Не требуется

Описание:
Эта неделя посвящена Востоку. Попробуйте день начать без суеты, созерцая себя и окружающий мир. Следуя за движениями мастера Ушу, вы почувствуете неторопливый ток времени, которое напрямую свяжет вас с накопленой веками мудростью мастеров Древнего Китая. Семь практик по 8-10 минут на каждый день недели откроют для вас источник силы и энергии для достижения своих повседневных целей, как духовных так и физических.

Ескулов Джамал, тренер по ушу, подедитель, призер и участник чемпионатов СССР, России, Мира и Европы. Старший тренер Московской области по ушу-таолу. Главный тренер спортивного клуба "Гармония".

Качество : DVDRip
Формат: AVI

Видео: 704x400 (1.76:1), 25 fps, XviD build 65 ~1662 kbps avg, 0.24 bit/pixel
Аудио: 48 kHz, AC3 Dolby Digital, 2/0 (L,R) ch, ~192 kbps

От shaolingirlg (спасибо ему за DVD): На самом деле на диске - чанцюань (спортивное направление, базовая составляющая: жоугун, цзибэньгун и т.п.). К оздоровительным практикам имеет такое же отношение как и все виды физических упражнений комплексного характера (утренняя зарядка, оздоровительный бег, футбол во дворе, волейбол на летнем пляже...)

Код: Выделить всё

General
Complete name                            : Fitness.Kalendar.Nedelya.Vostoka.avi
Format                                   : AVI
Format/Info                              : Audio Video Interleave
File size                                : 958 MiB
Duration                                 : 1h 11mn
Overall bit rate                         : 1 864 Kbps
Writing application                      : VirtualDubModRus 1.5.10.2 (build 2542/release)
Writing library                          : VirtualDubMod build 2542/release

Video
ID                                       : 0
Format                                   : MPEG-4 Visual
Format profile                           : Advanced Simple@L5
Format settings, BVOP                    : 1
Format settings, QPel                    : No
Format settings, GMC                     : No warppoints
Format settings, Matrix                  : Custom
Codec ID                                 : XVID
Codec ID/Hint                            : XviD
Duration                                 : 1h 11mn
Bit rate                                 : 1 662 Kbps
Width                                    : 704 pixels
Height                                   : 400 pixels
Display aspect ratio                     : 16:9
Frame rate                               : 25.000 fps
Color space                              : YUV
Chroma subsampling                       : 4:2:0
Bit depth                                : 8 bits
Scan type                                : Progressive
Compression mode                         : Lossy
Bits/(Pixel*Frame)                       : 0.236
Stream size                              : 854 MiB (89%)
Writing library                          : XviD 65

Audio
ID                                       : 1
Format                                   : AC-3
Format/Info                              : Audio Coding 3
Mode extension                           : CM (complete main)
Format settings, Endianness              : Big
Codec ID                                 : 2000
Duration                                 : 1h 11mn
Bit rate mode                            : Constant
Bit rate                                 : 192 Kbps
Channel count                            : 2 channels
Channel positions                        : Front: L R
Sampling rate                            : 48.0 KHz
Bit depth                                : 16 bits
Compression mode                         : Lossy
Stream size                              : 98.6 MiB (10%)
Alignment                                : Split accross interleaves
Interleave, duration                     : 40 ms (1.00 video frame)
Interleave, preload duration             : 500 ms
Раздача от группы
У вас нет необходимых прав для просмотра вложений в этом сообщении.