Яна Андрюкова - Пластическая гимнастика калланетик [2004 г., Фитнес, DVDRip]

Торрент Сидеров Личеров Размер
torrent_1684376.torrent
0 0 674.16 МБ
Аватара пользователя
Stepan
Администратор
Сообщения: 52357
Зарегистрирован: 05 ноя 2011, 20:36

Яна Андрюкова - Пластическая гимнастика калланетик [2004 г., Фитнес, DVDRip]

Сообщение Stepan » 19 сен 2016, 00:28

Яна Андрюкова - Пластическая гимнастика калланетик

Год выпуска: 2004
Страна: Россия
Жанр: Фитнес
Продолжительность: 01:05:26
Ведущая: автор программы врач по спортивной медицине Яна Андрюкова.
Производитель: ООО Кинокомпания ФАКТОР-ВИДЕО

Описание: Калланетик - это гимнастическая программа, рассчитанная на час интенсивных занятий. Упражнения сделают бедра стройными, подтянут живот, приподнимут бюст и избавят от лишнего веса. Если Вы не любите совершать резких движений, прыжки или у Вас имеются противопоказания к шейпингу или аэробике - тогда КАЛЛАНЕТИК для Вас!
ДВДРип с раздачи
Качество: DVDRip
Формат: MP4
Видео кодек: H.264
Аудио кодек: AAC
Видео: MPEG4 Video (H264) 640x480 25.00fps 1440 Kbps
Аудио: AAC 44100Hz stereo 1411Kbps
Код:

Код: Выделить всё

General
Complete name                            : F:\Фитнес и  аэробика\Andryukova-kallanetik.mp4
Format                                   : MPEG-4
Format profile                           : Base Media
Codec ID                                 : isom
File size                                : 674 MiB
Duration                                 : 1h 5mn
Overall bit rate mode                    : Variable
Overall bit rate                         : 1 440 Kbps
Writing application                      : Lavf52.13.0
Video
ID                                       : 1
Format                                   : AVC
Format/Info                              : Advanced Video Codec
Format profile                           : Baseline@L3.0
Format settings, CABAC                   : No
Format settings, ReFrames                : 1 frame
Codec ID                                 : avc1
Codec ID/Info                            : Advanced Video Coding
Duration                                 : 1h 5mn
Bit rate                                 : 1 284 Kbps
Width                                    : 640 pixels
Height                                   : 480 pixels
Display aspect ratio                     : 4:3
Frame rate mode                          : Constant
Frame rate                               : 25.000 fps
Color space                              : YUV
Chroma subsampling                       : 4:2:0
Bit depth                                : 8 bits
Scan type                                : Progressive
Bits/(Pixel*Frame)                       : 0.167
Stream size                              : 601 MiB (89%)
Audio
ID                                       : 2
Format                                   : AAC
Format/Info                              : Advanced Audio Codec
Format profile                           : LC
Codec ID                                 : 40
Duration                                 : 1h 5mn
Bit rate mode                            : Variable
Bit rate                                 : 152 Kbps
Channel(s)                               : 2 channels
Channel positions                        : Front: L R
Sampling rate                            : 44.1 KHz
Compression mode                         : Lossy
Stream size                              : 71.1 MiB (11%)

Спасибо за помощь по восстановлению оформления релиза!
У вас нет необходимых прав для просмотра вложений в этом сообщении.